coor
一代宗师

[2007] [其他] [动作] [BD-1080P] 逃亡鳄鱼岛/冒险鳄园 Rogue.2007.1080p.BluRay.x264.DTS-FGT 7.94GB

-->



◎译  名 逃亡鳄鱼岛 / 冒险鳄园 / 凶鳄 / 邪鳄禁区 / 野兽
◎片  名 Rogue
◎年  代 2007
◎产  地 澳大利亚 / 美国
◎类  别 动作 / 惊悚 / 恐怖 / 冒险
◎语  言 英语
◎上映日期 2007-11-08(锡切斯奇幻恐怖电影节) / 2009-10-15(中国大陆)
◎IMDb评分 6.2/10 from 26963 users
◎IMDb链接 https://www.imdb.com/title/tt0479528
◎豆瓣评分 5.8/10 from 7166 users
◎豆瓣链接 https://movie.douban.com/subject/2159244/
◎片  长 99 分钟
◎导  演 Greg Mclean
◎编  剧 Greg Mclean
◎主  演 拉妲·米契尔 Radha Mitchell
      迈克尔·瓦尔坦 Michael Vartan
      萨姆·沃辛顿 Sam Worthington
      Caroline Brazier
      Stephen Curry
      Celia Ireland
      约翰·贾瑞特 John Jarratt
      Heather Mitchell
      Geoff Morrell
      Damien Richardson
      罗伯特·泰勒 Robert Taylor
      米娅·华希科沃斯卡 Mia Wasikowska
      Barry Otto
      Shaun Longham
      Patch 'The Wonder' Dog


◎标  签 惊悚 | 澳大利亚 | 恐怖 | 美国 | 恐怖电影 | 2007 | 美国电影 | 电影

◎简  介

  供职于某旅游杂志的记者皮特?麦克卡尔(Michael Vartan 饰)参加了一个在澳大利亚卡卡度国家公园举行的水上冒险旅行团。不过这次旅程对寻求刺激的人们来说似乎过于枯燥,美丽的女导游凯特?瑞恩(Radha Mitchell 饰)带领大家进入尚未开发的水域。正当游客们享受这令人惊叹的湖光山色之时,不远处的天空升起了求救的信号弹。凯特不顾大家返回的要求,执意要去查看情况。当来到一片神秘的湖泊之时,游船遭到撞击,开始下沉。众人被迫下船,却不知自己已经来到食人鳄鱼的领地。一场实力悬殊的杀戮旋即展开……
  本片荣获2007年澳大利亚电影节最佳视觉效果奖、2009年Fangoria链锯奖最佳录影带第三名。
Video
ID : 1
Format : AVC
Format/Info : Advanced Video Codec
Format profile : Hi[email protected]
Format settings : CABAC / 4 Ref Frames
Format settings, CABAC : Yes
Format settings, Reference frames : 4 frames
Codec ID : V_MPEG4/ISO/AVC
Duration : 1 h 39 min
Bit rate : 9 970 kb/s
Width : 1 920 pixels
Height : 1 080 pixels
Display aspect ratio : 16:9
Frame rate mode : Constant
Frame rate : 24.000 FPS
Color space : YUV
Chroma subsampling : 4:2:0
Bit depth : 8 bits
Scan type : Progressive
Bits/(Pixel*Frame) : 0.200
Stream size : 6.74 GiB (85%)
Writing library : x264 core 77 r1281 3836218
Encoding settings : cabac=1 / ref=4 / deblock=1:0:0 / analyse=0x3:0x133 / me=umh / subme=7 / psy=1 / psy_rd=1.0:0.0 / mixed_ref=1 / me_range=16 / chroma_me=1 / trellis=1 / 8x8dct=1 / cqm=0 / deadzone=21,11 / chroma_qp_offset=-2 / threads=6 / nr=0 / decimate=1 / mbaff=0 / constrained_intra=0 / bframes=3 / b_pyramid=0 / b_adapt=1 / b_bias=0 / direct=1 / wpredb=1 / keyint=250 / keyint_min=25 / scenecut=40 / rc_lookahead=40 / rc=2pass / mbtree=1 / bitrate=9970 / ratetol=1.0 / qcomp=0.60 / qpmin=10 / qpmax=51 / qpstep=4 / cplxblur=20.0 / qblur=0.5 / ip_ratio=1.40 / aq=1:1.00
Language : English
Default : Yes
Forced : No

Audio
ID : 2
Format : DTS
Format/Info : Digital Theater Systems
Codec ID : A_DTS
Duration : 1 h 39 min
Bit rate mode : Constant
Bit rate : 1 509 kb/s
Channel(s) : 6 channels
Channel layout : C L R Ls Rs LFE
Sampling rate : 48.0 kHz
Frame rate : 93.750 FPS (512 SPF)
Bit depth : 24 bits
Compression mode : Lossy
Stream size : 1.04 GiB (13%)
Language : English
Default : Yes
Forced : No

Text
ID : 3
Format : UTF-8
Codec ID : S_TEXT/UTF8
Codec ID/Info : UTF-8 Plain Text
Language : English
Default : Yes
Forced : No





2 个附件 售价 大小 下载 时间

Silent.Hill.2006.1080p.BluRay.x264.DTS-FGT.torrent 0 金币 63.02K 231 次 7天前

Rogue.2007.1080p.BluRay.x264.DTS-FGT.torrent 0 金币 79.89K 490 次 7天前

#1楼
发帖时间:2020-06-30 11:24:52   |   回复数:2
911degrees
隐世仙人♂
非常感谢,谢谢分享
7天前 #2楼
liyouchai
隐世仙人♂
谢谢楼主分享资源
5天前 #3楼
游客组