coor
一代宗师

[更 早] [欧美] [剧情] [BD-1080P] 蒸发密令/毁灭者 Eraser.1996.1080p.BluRay.x264.DTS-FGT 9.68GB

-->



◎译  名 蒸发密令 / 毁灭者 / 魔鬼毁灭者
◎片  名 Eraser
◎年  代 1996
◎产  地 美国
◎类  别 剧情 / 动作 / 悬疑 / 犯罪
◎语  言 英语
◎上映日期 1996-06-21(美国)
◎IMDb评分 6.1/10 from 101317 users
◎IMDb链接 https://www.imdb.com/title/tt0116213
◎豆瓣评分 7.3/10 from 24318 users
◎豆瓣链接 https://movie.douban.com/subject/1298635/
◎片  长 115分钟
◎导  演 查克·拉塞尔 Chuck Russell
◎编  剧 Tony Puryear / 沃伦·格林 Walon Green / Michael S. Chernuchin
◎主  演 阿诺·施瓦辛格 Arnold Schwarzenegger
      詹姆斯·肯恩 James Caan
      凡妮莎·威廉斯 Vanessa Williams
      詹姆斯·柯本 James Coburn
      罗伯特·帕斯托莱利 Robert Pastorelli
      詹姆斯·克伦威尔 James Cromwell
      丹尼·努齐 Danny Nucci
      Andy Romano
      尼克·齐兰德 Nick Chinlund
      迈克尔·帕帕约翰 Michael Papajohn
      乔·维特雷利 Joe Viterelli
      马克·罗斯顿 Mark Rolston
      约翰·斯拉特里 John Slattery
      Robert Miranda
      罗马·玛菲娅 Roma Maffia
      Tony Longo
      格里贝克尔 Gerry Becker
      John Snyder
      梅罗拉·沃特斯 Melora Walters
      奥莱克·克鲁帕 Olek Krupa
      Cylk Cozart
      K.托德·弗里曼 K. Todd Freeman
      罗科·西斯托 Rocco Sisto
      Gerald Berns
      斯蒂芬·福特 Steven Ford
      伊斯梅尔·伊斯特·卡尔罗 Ismael 'East' Carlo
      Tommy J. Huff
      Rick Batalla
      Michael Gregory
      帕特里克·基尔帕特里克 Patrick Kilpatrick
      斯基普·萨德思 Skipp Sudduth
      Denis Forest
      史文-欧尔·托尔森 Sven-Ole Thorsen


◎标  签 动作 | 美国 | 科幻 | 1996 | 犯罪 | 特工 | 剧情 | 经典

◎简  介

  艾伦(范妮莎?L?威廉姆斯 Vanessa Williams 饰)是美国最大武器武器制造公司西历公司的高级职员,她慢慢发现了这加公司的一些黑幕――该公司生产了一种明令禁止的武器并在黑市交易。FBI利用艾伦获得了一些证据,艾伦成了本案的关键证人。鉴于这间公司的势力,证人保护中心派出了法警约翰(阿诺?施瓦辛格 Arnold Schwarzenegger 饰)前往保护艾伦。
  当约翰赶到艾伦家时,杀手正在谋杀艾伦。约翰救出了惊魂未定的艾伦,并告诉了她现在情况。安顿好艾伦后,约翰前往酒吧和同伴罗伯特(詹姆斯?凯恩 James Caan 饰)见面,罗伯特告诉约翰因为保护证人的计划泄漏,要重新安排,并要求约翰一起行动。向来都是独立完成任务的约翰起了疑心,他慢慢开始觉得这件事背后的势力并不简单。

◎获奖情况

  第69届奥斯卡金像奖(1997)
  最佳音效剪辑(提名) 阿兰·罗伯特·默里 / 巴布·亚斯曼
Video
ID : 1
Format : AVC
Format/Info : Advanced Video Codec
Format profile : [email protected]
Format settings : CABAC / 4 Ref Frames
Format settings, CABAC : Yes
Format settings, Reference frames : 4 frames
Codec ID : V_MPEG4/ISO/AVC
Duration : 1 h 54 min
Bit rate : 10.4 Mb/s
Width : 1 920 pixels
Height : 800 pixels
Display aspect ratio : 2.40:1
Frame rate mode : Constant
Frame rate : 23.976 FPS
Color space : YUV
Chroma subsampling : 4:2:0
Bit depth : 8 bits
Scan type : Progressive
Bits/(Pixel*Frame) : 0.281
Stream size : 8.28 GiB (86%)
Writing library : x264 core 61 r951M 445d87e
Encoding settings : cabac=1 / ref=4 / deblock=1:-2:-2 / analyse=0x3:0x113 / me=umh / subme=7 / psy_rd=1.0:0.0 / brdo=1 / mixed_ref=1 / me_range=16 / chroma_me=1 / trellis=0 / 8x8dct=1 / cqm=0 / deadzone=6,4 / chroma_qp_offset=-2 / threads=6 / nr=0 / decimate=0 / mbaff=0 / bframes=3 / b_pyramid=1 / b_adapt=1 / b_bias=0 / direct=3 / wpredb=1 / bime=1 / keyint=250 / keyint_min=25 / scenecut=40(pre) / rc=crf / crf=21.0 / rceq='blurCplx^(1-qComp)' / qcomp=1.00 / qpmin=10 / qpmax=51 / qpstep=4 / vbv_maxrate=38000 / vbv_bufsize=30000 / ip_ratio=1.40 / pb_ratio=1.30 / aq=2:1.00
Language : English
Default : Yes
Forced : No

Audio
ID : 2
Format : DTS
Format/Info : Digital Theater Systems
Codec ID : A_DTS
Duration : 1 h 54 min
Bit rate mode : Constant
Bit rate : 1 510 kb/s
Channel(s) : 6 channels
Channel layout : C L R Ls Rs LFE
Sampling rate : 48.0 kHz
Frame rate : 93.750 FPS (512 SPF)
Bit depth : 24 bits
Compression mode : Lossy
Stream size : 1.21 GiB (12%)
Language : English
Default : Yes
Forced : No

Text
ID : 3
Format : UTF-8
Codec ID : S_TEXT/UTF8
Codec ID/Info : UTF-8 Plain Text
Language : English
Default : Yes
Forced : No





1 个附件 售价 大小 下载 时间

Eraser.1996.1080p.BluRay.x264.DTS-FGT.torrent 0 金币 97.42K 1659 次 6天前

#1楼
发帖时间:2020-06-30 22:50:24   |   回复数:3
jokingcheung
一代宗师
谢谢分享
6天前 #2楼
chulps
一代宗师
~ 珍惜+支持 ~
6天前 #3楼
911degrees
隐世仙人♂
非常感谢,谢谢分享
6天前 #4楼
游客组