coor
一代宗师

[2013] [欧美] [剧情] [BD-1080P] 神秘感染/7步成尸 Contracted.2013.1080p.BluRay.x264.DTS-FGT 7.32GB

-->



◎译  名 神秘感染 / 7步成尸(港) / 七步成尸 / 尸控一夜情(台) / 感染 / 神秘接触
◎片  名 Contracted
◎年  代 2013
◎产  地 美国
◎类  别 剧情 / 惊悚 / 恐怖
◎语  言 英语
◎上映日期 2013-11-22(瑞士)
◎IMDb评分 5.3/10 from 13952 users
◎IMDb链接 https://www.imdb.com/title/tt2281159
◎豆瓣评分 5.9/10 from 9142 users
◎豆瓣链接 https://movie.douban.com/subject/21348112/
◎片  长 84分钟
◎导  演 Eric England
◎编  剧 Eric England
◎主  演 娜嘉拉·汤森德 Najarra Townsend
      爱丽丝·麦克唐纳 Alice Macdonald
      查理·孔茨 Charley Koontz
      西蒙·巴雷特 Simon Barrett
      Caroline Williams
      Katie Stegeman
      Matt Mercer
      Dave Holmes
      Andre Boyer


◎标  签 丧尸 | 恐怖 | 惊悚 | 病毒 | 美国 | 血腥 | 感染 | 美国电影

◎简  介

  萨曼莎(娜嘉拉·汤森德 Najarra Townsend 饰)原本约好和女友妮姬(Katie Stegeman 饰)一起去夜店消遣,她见到了朋友爱丽丝(爱丽丝·麦克唐纳Alice Macdonald 饰),喜欢自己的男孩莱利(Matt Mercer 饰),却独独没有看到妮姬。酒过三巡,落寞的萨曼莎自饮自酌,谁知却遭遇了一名男子的暴行。令人不愿回忆的一夜过后,萨曼莎重新回到烦恼多多的生活中。谁知未过几天,她便发现出现在身体上上的种种异状,莫名的血迹,恐怖刺耳的幻听,眼睛充血,皮肤出现青斑,牙齿脱落。
  从爱丽丝口中得知,对她施暴的男人似乎是警方正全力追查的一个极度危险的人物。几天前还如花似玉的女孩,而今变成了一副恐怖的死尸模样……
Video
ID : 1
Format : AVC
Format/Info : Advanced Video Codec
Format profile : [email protected]
Format settings, CABAC : Yes
Format settings, ReFrames : 4 frames
Codec ID : V_MPEG4/ISO/AVC
Duration : 1h 23mn
Bit rate : 10.7 Mbps
Nominal bit rate : 11.5 Mbps
Width : 1 920 pixels
Height : 816 pixels
Display aspect ratio : 2.35:1
Frame rate mode : Constant
Frame rate : 23.976 fps
Color space : YUV
Chroma subsampling : 4:2:0
Bit depth : 8 bits
Scan type : Progressive
Bits/(Pixel*Frame) : 0.286
Stream size : 6.29 GiB (86%)
Writing library : x264 core 144 r96 40bb568
Encoding settings : cabac=1 / ref=4 / deblock=1:-2:-2 / analyse=0x3:0x113 / me=umh / subme=7 / psy=1 / psy_rd=1.00:0.15 / mixed_ref=1 / me_range=16 / chroma_me=1 / trellis=1 / 8x8dct=1 / cqm=0 / deadzone=21,11 / fast_pskip=1 / chroma_qp_offset=-3 / threads=12 / lookahead_threads=3 / sliced_threads=0 / nr=0 / decimate=1 / interlaced=0 / bluray_compat=0 / constrained_intra=0 / bframes=3 / b_pyramid=2 / b_adapt=2 / b_bias=0 / direct=3 / weightb=1 / open_gop=0 / weightp=2 / keyint=250 / keyint_min=25 / scenecut=40 / intra_refresh=0 / rc_lookahead=50 / rc=abr / mbtree=1 / bitrate=11500 / ratetol=1.0 / qcomp=0.60 / qpmin=0 / qpmax=69 / qpstep=4 / vbv_maxrate=31250 / vbv_bufsize=31250 / nal_hrd=none / filler=0 / ip_ratio=1.40 / aq=1:1.00
Language : English
Default : Yes
Forced : No

Audio
ID : 2
Format : DTS
Format/Info : Digital Theater Systems
Mode : 16
Format settings, Endianness : Big
Codec ID : A_DTS
Duration : 1h 23mn
Bit rate mode : Constant
Bit rate : 1 509 Kbps
Channel(s) : 6 channels
Channel positions : Front: L C R, Side: L R, LFE
Sampling rate : 48.0 KHz
Bit depth : 16 bits
Compression mode : Lossy
Stream size : 906 MiB (12%)
Language : English
Default : Yes
Forced : No

Menu
00:00:00.000 : en:Chapter 01
00:12:26.620 : en:Chapter 02
00:19:12.651 : en:Chapter 03
00:23:33.620 : en:Chapter 04
00:28:50.437 : en:Chapter 05
00:38:28.097 : en:Chapter 06
00:44:17.321 : en:Chapter 07
00:49:08.070 : en:Chapter 08
00:55:17.814 : en:Chapter 09
01:04:03.548 : en:Chapter 10
01:09:25.244 : en:Chapter 11
01:16:55.110 : en:Chapter 12
01:18:58.108 : en:Chapter 13





1 个附件 售价 大小 下载 时间

Contracted.2013.1080p.BluRay.x264.DTS-FGT.torrent 0 金币 73.82K 630 次 6天前

#1楼
发帖时间:2020-06-30 22:58:32   |   回复数:2
黑色幽默66
小有名气
谢谢楼主分享
6天前 #2楼
911degrees
隐世仙人♂
非常感谢,谢谢分享
6天前 #3楼
游客组