coor
一代宗师

[2007] [其他] [剧情] [BD-1080P] 趣味游戏美国版 Funny.Games.2007.1080p.BluRay.x264.DTS-FGT 10.10GB

-->



◎译  名 趣味游戏美国版 / Funny Games U.S. / 大刽人心 / 大快人心 / 恐怖游戏 / 疯杀游戏 / 趣味游戏
◎片  名 Funny Games
◎年  代 2007
◎产  地 美国 / 法国 / 英国 / 奥地利 / 德国 / 意大利
◎类  别 剧情 / 惊悚 / 恐怖
◎语  言 英语
◎上映日期 2007-10-20
◎IMDb评分 6.6/10 from 88325 users
◎IMDb链接 https://www.imdb.com/title/tt0808279
◎豆瓣评分 6.6/10 from 17422 users
◎豆瓣链接 https://movie.douban.com/subject/1892527/
◎片  长 111 分钟
◎导  演 Michael Haneke
◎编  剧 Michael Haneke
◎主  演 Naomi Watts
      Tim Roth
      Michael Pitt
      Brady Corbet
      Devon Gearhart
      Boyd Gaines
      Siobhan Fallon


◎标  签 惊悚 | 美国 | 犯罪 | 恐怖 | 美国电影 | 2007 | NaomiWatts | MichaelHaneke

◎简  介

  乔治(Tim Roth 蒂姆?罗素 饰)和安(Naomi Watts 娜奥米?沃茨 饰)带着儿子和爱犬来到城外岛某别墅度假,原本美好的假期却被两个不速之客破坏。两个打扮拘谨,文质彬彬的年轻人敲开乔治的房门,向他们借鸡蛋。安热情地接待他们,然而鸡蛋一次次被有意无意打破,他们的电话也被碰倒水中。安的忍耐到了极限,命令他们离开自己的房子。
  年轻人非但不听,反而变本加厉,开始对乔治一家展开毫不留情的折磨与屠杀……
  本片荣获2008年少年好莱坞奖一种视角最佳男主角奖(Brady Corbet)。
Video
ID : 1
Format : AVC
Format/Info : Advanced Video Codec
Format profile : [email protected]
Format settings, CABAC : Yes
Format settings, ReFrames : 4 frames
Codec ID : V_MPEG4/ISO/AVC
Duration : 1h 51mn
Bit rate : 11.5 Mbps
Width : 1 920 pixels
Height : 1 040 pixels
Display aspect ratio : 1.85:1
Frame rate mode : Constant
Frame rate : 24.000 fps
Color space : YUV
Chroma subsampling : 4:2:0
Bit depth : 8 bits
Scan type : Progressive
Bits/(Pixel*Frame) : 0.240
Stream size : 8.73 GiB (86%)
Writing library : x264 core 65 r999M cc51047
Encoding settings : cabac=1 / ref=4 / deblock=1:-3:-3 / analyse=0x3:0x113 / me=umh / subme=9 / psy_rd=1.0:1.0 / mixed_ref=1 / me_range=24 / chroma_me=1 / trellis=2 / 8x8dct=1 / cqm=2 / deadzone=21,11 / chroma_qp_offset=-4 / threads=6 / nr=0 / decimate=1 / mbaff=0 / bframes=3 / b_pyramid=0 / b_adapt=2 / b_bias=0 / direct=3 / wpredb=1 / keyint=250 / keyint_min=25 / scenecut=40(pre) / rc=2pass / bitrate=11496 / ratetol=1.0 / qcomp=0.60 / qpmin=10 / qpmax=51 / qpstep=4 / cplxblur=20.0 / qblur=0.5 / ip_ratio=1.40 / pb_ratio=1.30 / aq=1:0.60
Language : English
Default : Yes
Forced : No

Audio
ID : 2
Format : DTS
Format/Info : Digital Theater Systems
Mode : 16
Format settings, Endianness : Big
Codec ID : A_DTS
Duration : 1h 51mn
Bit rate mode : Constant
Bit rate : 1 509 Kbps
Channel(s) : 6 channels
Channel positions : Front: L C R, Side: L R, LFE
Sampling rate : 48.0 KHz
Bit depth : 16 bits
Compression mode : Lossy
Stream size : 1.17 GiB (12%)
Language : English
Default : Yes
Forced : No

Text
ID : 3
Format : UTF-8
Codec ID : S_TEXT/UTF8
Codec ID/Info : UTF-8 Plain Text
Language : English
Default : No
Forced : No





1 个附件 售价 大小 下载 时间

Funny.Games.2007.1080p.BluRay.x264.DTS-FGT.torrent 0 金币 51.09K 455 次 6天前

#1楼
发帖时间:2020-06-30 23:02:33   |   回复数:3
黑色幽默66
小有名气
谢谢楼主分享
6天前 #2楼
chulps
一代宗师
~ 珍惜+支持 ~
6天前 #3楼
911degrees
隐世仙人♂
非常感谢,谢谢分享
6天前 #4楼
游客组