coor
一代宗师

[更 早] [欧美] [其他] [BD-1080P] 不死劫/惊心动魄 Unbreakable.2000.1080p.BluRay.x264.DTS-FGT 7.94GB

-->



◎译  名 不死劫 / 惊心动魄(台) / 生死劫
◎片  名 Unbreakable
◎年  代 2000
◎产  地 美国
◎类  别 悬疑 / 惊悚 / 犯罪
◎语  言 英语
◎上映日期 2000-11-22(美国)
◎IMDb评分 7.3/10 from 377635 users
◎IMDb链接 https://www.imdb.com/title/tt0217869
◎豆瓣评分 6.8/10 from 18404 users
◎豆瓣链接 https://movie.douban.com/subject/1301711/
◎片  长 106分钟
◎导  演 M·奈特·沙马兰 M. Night Shyamalan
◎编  剧 M·奈特·沙马兰 M. Night Shyamalan
◎主  演 布鲁斯·威利斯 Bruce Willis
      塞缪尔·杰克逊 Samuel L. Jackson
      罗宾·怀特 Robin Wright
      斯宾塞·崔特·克拉克 Spencer Treat Clark
      查莱宁·伍德拉德 Charlayne Woodard
      伊默恩·沃克 Eamonn Walker
      莱斯利·史蒂芬森 Leslie Stefanson
      Elizabeth Lawrence
      劳拉·里根 Laura Regan
      蔡斯·凯利 Chance Kelly
      迈克尔·凯利 Michael Kelly
      法尔德斯·巴姆 Firdous Bamji
      詹姆斯·汉迪 James Handy
      理查德·肯索尔 Richard Council
      达米安·杨 Damian Young
      M·奈特·沙马兰 M. Night Shyamalan
      Sasha Neulinger
      Ukee Washington
      Todd Berry
      Julia Yorks
      约翰·帕特里克·阿梅多利 John Patrick Amedori
      安东尼博斯克 Anthony Bosco
      Chrismandu
      詹妮弗·黑尔 Jennifer Hale
      娜塔莉·霍尔特曼 Natalie Hultman
      Greg Korin
      布莱斯·列侬 Bryce Lenon
      John Martineau
      Joey Perillo
      Mark Poulton
      大卫罗姆 David C. Roehm Sr.
      Jonathan Sachar


◎标  签 悬疑 | 美国 | 科幻 | 布鲁斯·威利斯 | 惊悚 | 剧情 | 2000 | BruceWillis

◎简  介

  一场火车对撞的惨剧夺去131名乘客的性命,大卫?杜恩(Bruce Willis 布鲁斯?威利斯 饰)奇迹般地成为这场灾难过后的唯一幸存者,且浑身上下毫发无伤。在他参加遇难者追悼会之后,他在车窗上发现一张神秘便条,写道:“你这一生生过几次病?”
  不久,一个名叫伊利亚?普莱斯(Samuel L. Jackson 塞缪尔?杰克逊 饰)的黑人出现在大卫面前。和大卫不同的是,伊利亚天生手脚残废,脆弱不堪。喜爱漫画的伊利亚认定大卫就是书中那种具有超自然能力的超人。懵懂的大卫开始在伊利亚的引导下认识自身的能力……
Video
ID : 1
Format : AVC
Format/Info : Advanced Video Codec
Format profile : [email protected]
Format settings, CABAC : Yes
Format settings, ReFrames : 4 frames
Codec ID : V_MPEG4/ISO/AVC
Duration : 1h 46mn
Bit rate : 9 149 Kbps
Width : 1 920 pixels
Height : 816 pixels
Display aspect ratio : 2.35:1
Frame rate mode : Constant
Frame rate : 23.976 fps
Color space : YUV
Chroma subsampling : 4:2:0
Bit depth : 8 bits
Scan type : Progressive
Bits/(Pixel*Frame) : 0.244
Stream size : 6.66 GiB (84%)
Writing library : x264 core 59 r839M 27c3071
Encoding settings : cabac=1 / ref=4 / deblock=1:-1:-1 / analyse=0x3:0x113 / me=umh / subme=7 / me-prepass=0 / brdo=1 / mixed_ref=1 / me_range=16 / chroma_me=1 / trellis=1 / 8x8dct=1 / cqm=0 / deadzone=21,11 / chroma_qp_offset=0 / threads=6 / nr=0 / decimate=0 / mbaff=0 / fgo=10 / bframes=8 / b_pyramid=1 / b_adapt=1 / b_bias=0 / direct=1 / wpredb=1 / bime=1 / keyint=250 / keyint_min=25 / scenecut=40(pre) / rc=2pass / bitrate=9149 / ratetol=2.0 / rceq=\'blurCplx^(1-qComp)\' / qcomp=1.00 / qpmin=10 / qpmax=51 / qpstep=4 / cplxblur=20.0 / qblur=0.5 / vbv_maxrate=38000 / vbv_bufsize=30000 / ip_ratio=1.40 / pb_ratio=1.15 / aq=2:1.00
Language : English
Default : Yes
Forced : No

Audio
ID : 2
Format : DTS
Format/Info : Digital Theater Systems
Mode : 16
Format settings, Endianness : Big
Codec ID : A_DTS
Duration : 1h 46mn
Bit rate mode : Constant
Bit rate : 1 510 Kbps
Channel(s) : 6 channels
Channel positions : Front: L C R, Side: L R, LFE
Sampling rate : 48.0 KHz
Bit depth : 24 bits
Compression mode : Lossy
Stream size : 1.13 GiB (14%)
Language : English
Default : Yes
Forced : No

Text #1
ID : 3
Format : UTF-8
Codec ID : S_TEXT/UTF8
Codec ID/Info : UTF-8 Plain Text
Language : English
Default : No
Forced : No

Text #2
ID : 4
Format : UTF-8
Codec ID : S_TEXT/UTF8
Codec ID/Info : UTF-8 Plain Text
Language : Dutch
Default : No
Forced : No

Text #3
ID : 5
Format : UTF-8
Codec ID : S_TEXT/UTF8
Codec ID/Info : UTF-8 Plain Text
Language : French
Default : No
Forced : No

Text #4
ID : 6
Format : UTF-8
Codec ID : S_TEXT/UTF8
Codec ID/Info : UTF-8 Plain Text
Language : Greek
Default : No
Forced : No

Menu
00:00:00.000 : en:00:00:00.000
00:08:44.023 : en:00:08:44.023
00:09:50.673 : en:00:09:50.673
00:14:57.063 : en:00:14:57.063
00:16:30.948 : en:00:16:30.948
00:20:57.339 : en:00:20:57.339
00:25:04.920 : en:00:25:04.920
00:32:26.069 : en:00:32:26.069
00:34:37.158 : en:00:34:37.158
00:36:28.395 : en:00:36:28.395
00:40:55.703 : en:00:40:55.703
00:43:22.975 : en:00:43:22.975
00:49:59.038 : en:00:49:59.038
00:54:53.040 : en:00:54:53.040
00:56:57.414 : en:00:56:57.414
01:00:00.096 : en:01:00:00.096
01:02:51.393 : en:01:02:51.393
01:04:35.038 : en:01:04:35.038
01:07:37.262 : en:01:07:37.262
01:12:16.832 : en:01:12:16.832
01:13:28.446 : en:01:13:28.446
01:17:33.315 : en:01:17:33.315
01:22:19.685 : en:01:22:19.685
01:31:38.618 : en:01:31:38.618
01:33:13.588 : en:01:33:13.588
01:35:53.081 : en:01:35:53.081
01:37:49.989 : en:01:37:49.989
01:42:15.463 : en:01:42:15.463
01:46:37.391 : en:01:46:37.391
01:46:38.809 : en:01:46:38.809





1 个附件 售价 大小 下载 时间

Unbreakable.2000.1080p.BluRay.x264.DTS-FGT.torrent 0 金币 80.01K 714 次 6天前

#1楼
发帖时间:2020-06-30 23:05:01   |   回复数:0
游客组