coor
一代宗师

[更 早] [欧美] [剧情] [BD-1080P] 天生爱情狂 Don.Juan.DeMarco.1994.1080p.BluRay.x264.DTS-FGT 10.28GB

-->



◎译  名 天生爱情狂 / Don Juan DeMarco and the Centerfold / 唐璜 / 唐璜德马科 / 天生爱情狂(港) / 这个男人有点色(台)
◎片  名 Don Juan DeMarco
◎年  代 1994
◎产  地 美国
◎类  别 剧情 / 喜剧 / 爱情
◎语  言 英语 / 西班牙语
◎上映日期 1994-10 / 1995-04-07(美国)
◎IMDb评分 6.7/10 from 47142 users
◎IMDb链接 https://www.imdb.com/title/tt0112883
◎豆瓣评分 8.1/10 from 16481 users
◎豆瓣链接 https://movie.douban.com/subject/1296246/
◎片  长 97 分钟
◎导  演 杰里米·莱文 Jeremy Leven
◎编  剧 杰里米·莱文 Jeremy Leven / 拜伦 Lord Byron
◎主  演 Johnny Depp
      Marlon Brando
      Faye Dunaway
      Géraldine Pailhas
      Bob Dishy


◎标  签 JohnnyDepp | 爱情 | 美国 | 约翰尼·德普 | MarlonBrando | 美国电影 | 唐璜 | 剧情

◎简  介

  精神科医生杰克(马龙·白兰度 Marlon Brando 饰)的家庭平静但缺少激情,随着年岁的增长,他感到曾经的梦想离自己越来越远。就在离退休还有10天时,他接手了一个有妄想症,企图自杀的青年。青年自称唐璜(约翰尼·德普 Johnny Depp 饰),带着面具,穿着不符合时代的长靴和披风,佩带长剑,他因被最爱的女人抛弃,而萌生了自杀的念头。唐璜虽然行为举止十分怪异,但却有着无法抵挡的个人魅力,他向杰克倾诉自己的过往,他的传奇经历深深吸引了杰克,同时也引发了他对自己婚姻生活的深刻的思考。就在杰克被唐璜吸引之时,唐璜的祖母和母亲相继出现,两人所言却大相径庭。
  他到底是谁?只是一个疯疯癫癫的浪荡子,还是真的是一个背负着沉重过去的大情圣?10天很快就要过去了,面对同事和法官,他又会做出怎样的选择呢?

◎获奖情况

  第68届奥斯卡金像奖(1996)
  最佳原创歌曲(提名) 迈克尔·凯曼 / 布莱恩·亚当斯 / Robert John Lange
Video
ID : 1
Format : AVC
Format/Info : Advanced Video Codec
Format profile : [email protected]
Format settings : CABAC / 4 Ref Frames
Format settings, CABAC : Yes
Format settings, Reference frames : 4 frames
Codec ID : V_MPEG4/ISO/AVC
Duration : 1 h 37 min
Bit rate : 13.6 Mb/s
Width : 1 920 pixels
Height : 1 080 pixels
Display aspect ratio : 16:9
Frame rate mode : Constant
Frame rate : 23.976 (24000/1001/189150) FPS
Color space : YUV
Chroma subsampling : 4:2:0
Bit depth : 8 bits
Scan type : Progressive
Bits/(Pixel*Frame) : 0.274
Stream size : 9.05 GiB (88%)
Writing library : x264 core 120 r2164 da19765
Encoding settings : cabac=1 / ref=4 / deblock=1:-3:-3 / analyse=0x3:0x113 / me=umh / subme=10 / psy=1 / psy_rd=0.90:0.10 / mixed_ref=1 / me_range=32 / chroma_me=1 / trellis=2 / 8x8dct=1 / cqm=0 / deadzone=21,11 / fast_pskip=0 / chroma_qp_offset=-3 / threads=6 / sliced_threads=0 / nr=0 / decimate=0 / interlaced=0 / bluray_compat=0 / constrained_intra=0 / bframes=7 / b_pyramid=2 / b_adapt=2 / b_bias=0 / direct=3 / weightb=1 / open_gop=0 / weightp=2 / keyint=240 / keyint_min=23 / scenecut=40 / intra_refresh=0 / rc=2pass / mbtree=0 / bitrate=13633 / ratetol=1.0 / qcomp=0.70 / qpmin=0 / qpmax=69 / qpstep=4 / cplxblur=20.0 / qblur=0.5 / ip_ratio=1.40 / pb_ratio=1.30 / aq=2:0.80
Language : English
Default : Yes
Forced : No

Audio
ID : 2
Format : DTS
Format/Info : Digital Theater Systems
Codec ID : A_DTS
Duration : 1 h 37 min
Bit rate mode : Constant
Bit rate : 1 509 kb/s
Channel(s) : 6 channels
Channel layout : C L R Ls Rs LFE
Sampling rate : 48.0 kHz
Frame rate : 93.750 FPS (512 SPF)
Bit depth : 24 bits
Compression mode : Lossy
Stream size : 1.02 GiB (10%)
Language : English
Default : Yes
Forced : No

Text
ID : 3
Format : UTF-8
Codec ID : S_TEXT/UTF8
Codec ID/Info : UTF-8 Plain Text
Language : English
Default : No
Forced : No

Menu
00:00:00.000 : en:Chapter 01
00:03:44.641 : en:Chapter 02
00:07:38.875 : en:Chapter 03
00:12:30.666 : en:Chapter 04
00:18:33.445 : en:Chapter 05
00:21:45.220 : en:Chapter 06
00:24:47.068 : en:Chapter 07
00:27:38.740 : en:Chapter 08
00:32:27.612 : en:Chapter 09
00:38:13.291 : en:Chapter 10
00:43:10.462 : en:Chapter 11
00:49:47.275 : en:Chapter 12
00:53:47.432 : en:Chapter 13
00:58:44.938 : en:Chapter 14
01:07:15.072 : en:Chapter 15
01:09:24.368 : en:Chapter 16
01:12:14.455 : en:Chapter 17
01:15:43.455 : en:Chapter 18
01:20:33.078 : en:Chapter 19
01:24:44.496 : en:Chapter 20
01:28:55.538 : en:Chapter 21
01:31:12.091 : en:Chapter 22
01:36:10.574 : en:Chapter 23





1 个附件 售价 大小 下载 时间

Don.Juan.DeMarco.1994.1080p.BluRay.x264.DTS-FGT.torrent 0 金币 52.00K 469 次 6天前

#1楼
发帖时间:2020-06-30 23:26:00   |   回复数:2
911degrees
隐世仙人♂
非常感谢,谢谢分享
6天前 #2楼
jokingcheung
一代宗师
谢谢分享
6天前 #3楼
游客组