coor
一代宗师

[更 早] [欧美] [剧情] [BD-1080P] 卡萨诺瓦/浓情威尼斯 Casanova.2005.1080p.BluRay.x264.DTS-FGT 8.84GB

-->



◎译  名 卡萨诺瓦 / 浓情威尼斯
◎片  名 Casanova
◎年  代 2005
◎产  地 美国
◎类  别 剧情 / 喜剧 / 爱情 / 冒险
◎语  言 英语
◎上映日期 2005-12-25(美国)
◎IMDb评分 6.5/10 from 51136 users
◎IMDb链接 https://www.imdb.com/title/tt0402894
◎豆瓣评分 7.1/10 from 17112 users
◎豆瓣链接 https://movie.douban.com/subject/1470346/
◎片  长 112 分钟
◎导  演 Lasse Hallstr?m
◎编  剧 杰弗里·哈彻 Jeffrey Hatcher / Kimberly Simi
◎主  演 希斯·莱杰 Heath Ledger
      西耶娜·米勒 Sienna Miller
      杰瑞米·艾恩斯 Jeremy Irons
      奥利弗·普莱特 Oliver Platt
      莉娜·奥琳 Lena Olin
      欧米德·吉亚李利 Omid Djalili
      Stephen Greif
      肯·斯托特 Ken Stott
      海伦·麦克洛瑞 Helen McCrory
      利·劳森 Leigh Lawson
      蒂姆·麦克纳尼 Tim McInnerny
      查理·考克斯 Charlie Cox
      娜塔莉·多默尔 Natalie Dormer
      菲尔·戴维斯 Philip Davis
      Paddy Ward


◎标  签 爱情 | 美国 | HeathLedger | 喜剧 | Casanova | 美国电影 | 古装 | 浪漫

◎简  介

  贾柯莫·卡萨诺瓦(希斯·莱杰 Heath Ledger 饰)是威尼斯著名的浪荡子,从伯爵夫人到禁欲修女,似乎每个女人都抵抗不了他的睿智和风流。终于,他的放荡行为触怒了宗教局,被捕之后险些处以绞刑,幸好朋友及时出现力挽了狂澜。朋友警告卡萨诺瓦,如果不能找到一个正派女子结婚 ,他将被逐出威尼斯。卡萨诺瓦幼年时母亲离他而去,并且许下承诺将来会来威尼斯与他重聚,卡萨诺瓦一直相信着这个诺言。为了等待母亲,即使带上了婚姻的枷锁,他也要留在威尼斯。在机缘巧合之下,卡萨诺瓦认识了弗朗西斯卡(西耶娜·米勒 Sienna Miller 饰)。弗朗斯西卡思想前卫,饱读诗书又主张男女平等,这一切对于见惯了肤浅女人的卡萨诺瓦来说有着致命的吸引力。但是一方面,他们两人都有着未履行的婚约。另一方面,聪慧的弗朗西斯卡就像一头彪悍的小马那样难以驯服,卡萨诺瓦必须做出巨大的努力,才能捕获他的芳心。而在这条艰难的道路上,卡萨诺瓦渐渐的领悟了爱情与欲望的区别。
Video
ID : 1
Format : AVC
Format/Info : Advanced Video Codec
Format profile : [email protected]
Format settings : CABAC / 7 Ref Frames
Format settings, CABAC : Yes
Format settings, Reference frames : 7 frames
Codec ID : V_MPEG4/ISO/AVC
Duration : 1 h 51 min
Bit rate : 9 600 kb/s
Width : 1 920 pixels
Height : 800 pixels
Display aspect ratio : 2.40:1
Frame rate mode : Constant
Frame rate : 23.976 FPS
Color space : YUV
Chroma subsampling : 4:2:0
Bit depth : 8 bits
Scan type : Progressive
Bits/(Pixel*Frame) : 0.261
Stream size : 7.48 GiB (85%)
Writing library : x264 core 56 svn-682C
Encoding settings : cabac=1 / ref=4 / deblock=1:0:0 / analyse=0x3:0x133 / me=hex / fpel_cmp=sad / subme=6 / me-prepass=0 / brdo=0 / mixed_ref=0 / me_range=16 / chroma_me=1 / trellis=1 / 8x8dct=1 / cqm=2 / deadzone=21,11 / chroma_qp_offset=0 / threads=3 / nr=0 / decimate=1 / mbaff=0 / bframes=3 / b_pyramid=1 / b_adapt=1 / b_bias=0 / direct=3 / wpredb=1 / bime=0 / keyint=250 / keyint_min=25 / scenecut=40(pre) / rc=crf / crf=18.0 / rceq='blurCplx^(1-qComp)' / qcomp=0.60 / qpmin=10 / qpmax=51 / qpstep=4 / ip_ratio=1.40 / pb_ratio=1.30 / aq=1:0.3:15.0
Language : English
Default : Yes
Forced : No

Audio
ID : 2
Format : DTS
Format/Info : Digital Theater Systems
Codec ID : A_DTS
Duration : 1 h 51 min
Bit rate mode : Constant
Bit rate : 1 510 kb/s
Channel(s) : 6 channels
Channel layout : C L R Ls Rs LFE
Sampling rate : 48.0 kHz
Frame rate : 93.750 FPS (512 SPF)
Bit depth : 24 bits
Compression mode : Lossy
Stream size : 1.18 GiB (13%)
Language : English
Default : Yes
Forced : No





1 个附件 售价 大小 下载 时间

Casanova.2005.1080p.BluRay.x264.DTS-FGT.torrent 0 金币 88.95K 476 次 8天前

#1楼
发帖时间:2020-06-30 23:49:17   |   回复数:2
yangbo83222179
一代宗师
谢谢楼主分享
8天前 #2楼
911degrees
隐世仙人♂
非常感谢,谢谢分享
8天前 #3楼
游客组