squallzhao
一派掌门

[2016] [其他] [其他] [BD-1080P] 我不是你的黑鬼/我不是黑奴 I.Am.Not.Your.Negro.2016.DOCU.1080p.BluRay.x264-PSYCHD 7.65GB

-->

帖子完整标题:我不是你的黑鬼/我不是黑奴 I.Am.Not.Your.Negro.2016.DOCU.1080p.BluRay.x264-PSYCHD 7.65GB



◎译  名 我不是你的黑鬼 / 我不是黑奴(港)
◎片  名 I Am Not Your Negro
◎年  代 2016
◎产  地 美国 / 法国 / 比利时 / 瑞士
◎类  别 纪录片
◎语  言 英语 / 法语
◎上映日期 2016-09-10(多伦多电影节) / 2017-02-17(美国)
◎IMDb评分 7.9/10 from 18137 users
◎IMDb链接 https://www.imdb.com/title/tt5804038
◎豆瓣评分 7.8/10 from 1560 users
◎豆瓣链接 https://movie.douban.com/subject/26861970/
◎片  长 95分钟
◎导  演 哈乌·佩克 Raoul Peck
◎编  剧 詹姆斯·鲍德温 James Baldwin / 哈乌·佩克 Raoul Peck
◎主  演 塞缪尔·杰克逊 Samuel L. Jackson
      詹姆斯·鲍德温 James Baldwin
      哈里·贝拉方特 Harry Belafonte
      马龙·白兰度 Marlon Brando
      乔治·W· 布什 George W. Bush
      迪克·卡维特 Dick Cavett
      雷·查尔斯 Ray Charles
      加里·库珀 Gary Cooper
      琼·克劳馥 Joan Crawford
      托尼·柯蒂斯 Tony Curtis
      多丽丝·黛 Doris Day
      鲍勃·迪伦 Bob Dylan
      苏梅里娅·哈里斯 Shumerria Harris
      奥黛丽·赫本 Audrey Hepburn
      查尔登·海斯顿 Charlton Heston


◎标  签 纪录片 | 美国 | 种族 | 黑人 | 2016 | 历史 | 奥斯卡 | 种族歧视

◎简  介

  由塞缪尔·杰克逊献声、刻划美国黑人民权运动血泪史的《我不是你的黑鬼》,自推出后便崭露锋芒,不仅横扫数座国际影展最佳纪录片、观众票选奖,更强势入围奥斯卡最佳纪录长片,荣获BBC严选2017十大必看佳片,高踞美国各大传媒年度推荐最佳影片。
  本片改编自美国黑人作家詹姆斯·鲍德温未完遗作《记得这屋子》。作品忆及1960年代黑人民权运动过程和他的挚友—麦格艾佛斯、麦尔坎X和金恩博士三大精神领袖接连遭到暗杀的事件。这部作品尚未完成,詹姆斯·鲍德温就因胃癌逝世,遗下的手稿来到海地导演哈乌·佩克手中,成就了这部见证美国黑人民权运动最重要的光影篇章!

◎获奖情况

  第89届奥斯卡金像奖(2017)
  最佳纪录长片(提名) 何贝特·佩克 / 哈乌·佩克 / 雷米·格雷莱蒂

  第67届柏林国际电影节(2017)
  泰迪熊奖 最佳纪录片(提名) 哈乌·佩克

  第71届英国电影学院奖(2018)
  电影奖 最佳纪录片

  第43届法国凯撒电影奖(2018)
  最佳纪录片

  第41届多伦多国际电影节(2016)
  观众选择奖 纪录片单元

  第69届美国导演工会奖(2017)
  最佳纪录片导演(提名) 哈乌·佩克

  第32届美国独立精神奖(2017)
  最佳纪录片(提名)

  第20届英国独立电影奖(2017)
  最佳外国独立电影(提名)

  第26届哥谭独立电影奖(2016)
  最佳纪录片(提名)

  第15届华盛顿影评人协会奖(2016)
  最佳纪录片(提名)

  第42届洛杉矶影评人协会奖(2016)
  最佳纪录片

  第20届美国在线影评人协会奖(2017)
  最佳纪录片(提名)

Video
ID : 1
Format : AVC
Format/Info : Advanced Video Codec
Format profile : [email protected]
Format settings : CABAC / 4 Ref Frames
Format settings, CABAC : Yes
Format settings, Reference frames : 4 frames
Codec ID : V_MPEG4/ISO/AVC
Duration : 1 h 33 min
Bit rate : 10.2 Mb/s
Width : 1 920 pixels
Height : 1 040 pixels
Display aspect ratio : 1.85:1
Frame rate mode : Constant
Frame rate : 23.976 (24000/1001/189150) FPS
Color space : YUV
Chroma subsampling : 4:2:0
Bit depth : 8 bits
Scan type : Progressive
Bits/(Pixel*Frame) : 0.212
Stream size : 6.51 GiB (85%)
Writing library : x264 core 148 r2744 b97ae06
Encoding settings : cabac=1 / ref=4 / deblock=1:-3:-3 / analyse=0x3:0x113 / me=umh / subme=8 / psy=1 / psy_rd=1.00:0.00 / mixed_ref=1 / me_range=32 / chroma_me=1 / trellis=1 / 8x8dct=1 / cqm=0 / deadzone=21,11 / fast_pskip=1 / chroma_qp_offset=-2 / threads=24 / lookahead_threads=4 / sliced_threads=0 / nr=0 / decimate=1 / interlaced=0 / bluray_compat=0 / constrained_intra=0 / bframes=3 / b_pyramid=2 / b_adapt=2 / b_bias=0 / direct=3 / weightb=1 / open_gop=0 / weightp=2 / keyint=240 / keyint_min=24 / scenecut=40 / intra_refresh=0 / rc_lookahead=50 / rc=2pass / mbtree=1 / bitrate=10162 / ratetol=1.0 / qcomp=0.60 / qpmin=0 / qpmax=69 / qpstep=4 / cplxblur=20.0 / qblur=0.5 / ip_ratio=1.40 / aq=3:0.80
Default : Yes
Forced : No
Statistics Tags Issue : no_variable_data 1970-01-01 00:00:00 / no_variable_data 2010-02-22 21:41:29
FromStats_BitRate : 10155436
FromStats_Duration : 01:33:50.417000000
FromStats_FrameCount : 134995
FromStats_StreamSize : 7147418022

Audio
ID : 2
Format : DTS
Format/Info : Digital Theater Systems
Codec ID : A_DTS
Duration : 1 h 33 min
Bit rate mode : Constant
Bit rate : 1 509 kb/s
Channel(s) : 6 channels
Channel layout : C L R Ls Rs LFE
Sampling rate : 48.0 kHz
Frame rate : 93.750 FPS (512 SPF)
Bit depth : 24 bits
Compression mode : Lossy
Stream size : 1 013 MiB (13%)
Language : English
Default : Yes
Forced : No
Statistics Tags Issue : no_variable_data 1970-01-01 00:00:00 / no_variable_data 2010-02-22 21:41:29
FromStats_BitRate : 1508999
FromStats_Duration : 01:33:50.422000000
FromStats_FrameCount : 527852
FromStats_StreamSize : 1062038224

Text #1
ID : 3
Format : UTF-8
Codec ID : S_TEXT/UTF8
Codec ID/Info : UTF-8 Plain Text
Language : English
Default : No
Forced : No
Statistics Tags Issue : no_variable_data 1970-01-01 00:00:00 / no_variable_data 2010-02-22 21:41:29
FromStats_BitRate : 86
FromStats_Duration : 01:28:20.045000000
FromStats_FrameCount : 1341
FromStats_StreamSize : 57389

Text #2
ID : 4
Format : UTF-8
Codec ID : S_TEXT/UTF8
Codec ID/Info : UTF-8 Plain Text
Title : SDH
Language : English
Default : No
Forced : No
Statistics Tags Issue : no_variable_data 1970-01-01 00:00:00 / no_variable_data 2010-02-22 21:41:29
FromStats_BitRate : 89
FromStats_Duration : 01:28:27.010000000
FromStats_FrameCount : 1419
FromStats_StreamSize : 59610

Menu
00:00:00.000 : en:00:00:00.000
00:05:48.682 : en:00:05:48.682
00:11:47.498 : en:00:11:47.498
00:16:26.402 : en:00:16:26.402
00:22:24.051 : en:00:22:24.051
00:26:43.227 : en:00:26:43.227
00:33:08.862 : en:00:33:08.862
00:38:32.310 : en:00:38:32.310
00:44:33.713 : en:00:44:33.713
00:49:42.479 : en:00:49:42.479
00:55:38.293 : en:00:55:38.293
01:00:11.358 : en:01:00:11.358
01:06:10.967 : en:01:06:10.967
01:10:46.784 : en:01:10:46.784
01:16:48.646 : en:01:16:48.646
01:21:44.525 : en:01:21:44.525





1 个附件 售价 大小 下载 时间

I.Am.Not.Your.Negro.2016.DOCU.1080p.BluRay.x264-PSYCHD.zip 0 金币 77.20K 259 次 12天前

#1楼
发帖时间:2020-08-02 08:41:41   |   回复数:0
游客组