squallzhao
一派掌门

[2011] [欧美] [剧情] [BD-1080P] 浮生一日/一日人生 Life.in.a.Day.2011.LIMITED.DOCU.1080p.BluRay.x264-PSYCHD 6.56GB

-->

帖子完整标题:浮生一日/一日人生 Life.in.a.Day.2011.LIMITED.DOCU.1080p.BluRay.x264-PSYCHD 6.56GB



◎译  名 浮生一日 / 一日人生(港) / 同一天的生活 / 活在这一天(台)
◎片  名 Life in a Day
◎年  代 2011
◎产  地 美国
◎类  别 剧情 / 纪录片
◎语  言 英语
◎上映日期 2011-07-24(美国)
◎IMDb评分 7.7/10 from 14730 users
◎IMDb链接 https://www.imdb.com/title/tt1687247
◎豆瓣评分 8.8/10 from 73281 users
◎豆瓣链接 https://movie.douban.com/subject/5387041/
◎片  长 95分钟
◎导  演 凯文·麦克唐纳 Kevin Macdonald / Natalia Andreadis / Joseph Michael
◎主  演 Cindy Baer
      Moica
      Caryn Waechter
      Hiroaki Aikawa
      Drake Shannon


◎标  签 纪录片 | 平常生活 | 人生 | 生活 | 每个人 | 2011 | 美国电影 | 地球村

◎简  介

  由著名导演雷德利·斯科特(Ridley Scott)和托尼·斯科特(Tony Scott)牵线,全球最大的视频分享网站YouTube邀请全世界网民用摄像机纪录下2010年7月24日这一天自己的生活琐事以及对一些简单问题的回答。来自190个国家和地区的总计近4500小时的视频,展现了在同一天之中世界各地人们的日常生活。影片中每个人拍摄的内容迥异:除了将镜头对准自己之外,也有些人纪录下他人的有趣生活;既有完整的小事件,亦有无头无尾的片段;有些人的生活平淡无奇,而有些人却又刚好赶上了热闹非凡的大型活动。
  如此纷繁复杂的素材,经过首席执行导演凯文·麦克唐纳(Kevin Macdonald)的构想与处理之后,究竟会整合出怎样的趣味来呢?

◎获奖情况

  第2届豆瓣电影鑫像奖(2012)
  鑫豆单元 最佳影片(外语)(提名)

Video
ID : 1
Format : AVC
Format/Info : Advanced Video Codec
Format profile : [email protected]
Format settings : CABAC / 4 Ref Frames
Format settings, CABAC : Yes
Format settings, Reference frames : 4 frames
Codec ID : V_MPEG4/ISO/AVC
Duration : 1 h 35 min
Bit rate : 8 343 kb/s
Width : 1 920 pixels
Height : 1 080 pixels
Display aspect ratio : 16:9
Frame rate mode : Constant
Frame rate : 24.000 FPS
Color space : YUV
Chroma subsampling : 4:2:0
Bit depth : 8 bits
Scan type : Progressive
Bits/(Pixel*Frame) : 0.168
Stream size : 5.42 GiB (83%)
Writing library : x264 core 119 r2106 07efeb4
Encoding settings : cabac=1 / ref=4 / deblock=1:0:0 / analyse=0x3:0x113 / me=umh / subme=8 / psy=1 / psy_rd=1.00:0.00 / mixed_ref=1 / me_range=16 / chroma_me=1 / trellis=1 / 8x8dct=1 / cqm=0 / deadzone=21,11 / fast_pskip=1 / chroma_qp_offset=-2 / threads=12 / sliced_threads=0 / nr=0 / decimate=1 / interlaced=0 / bluray_compat=0 / constrained_intra=0 / bframes=3 / b_pyramid=2 / b_adapt=2 / b_bias=0 / direct=3 / weightb=1 / open_gop=0 / weightp=2 / keyint=240 / keyint_min=24 / scenecut=40 / intra_refresh=0 / rc_lookahead=50 / rc=2pass / mbtree=1 / bitrate=8343 / ratetol=1.0 / qcomp=0.60 / qpmin=0 / qpmax=69 / qpstep=4 / cplxblur=20.0 / qblur=0.5 / ip_ratio=1.40 / aq=1:1.00
Language : English
Default : Yes
Forced : No

Audio
ID : 2
Format : DTS
Format/Info : Digital Theater Systems
Codec ID : A_DTS
Duration : 1 h 35 min
Bit rate mode : Constant
Bit rate : 1 509 kb/s
Channel(s) : 6 channels
Channel layout : C L R Ls Rs LFE
Sampling rate : 48.0 kHz
Frame rate : 93.750 FPS (512 SPF)
Bit depth : 24 bits
Compression mode : Lossy
Stream size : 1.00 GiB (15%)
Language : English
Default : Yes
Forced : No

Text
ID : 3
Format : UTF-8
Codec ID : S_TEXT/UTF8
Codec ID/Info : UTF-8 Plain Text
Language : English
Default : No
Forced : No





1 个附件 售价 大小 下载 时间

Life.in.a.Day.2011.LIMITED.DOCU.1080p.BluRay.x264-PSYCHD.zip 0 金币 132.59K 322 次 12天前

#1楼
发帖时间:2020-08-02 08:44:42   |   回复数:0
游客组