coor
一代宗师

[更 早] [欧美] [剧情] [BD-720P] 高调 The.High.Note.2020.720p.BluRay.x264.DTS-FGT 5.53GB

-->

帖子完整标题:高调 The.High.Note.2020.720p.BluRay.x264.DTS-FGT 5.53GB



◎译  名 高调 / Covers / 天后小助理(台) / 封面人物 / 我老细系天后(港)
◎片  名 The High Note
◎年  代 2020
◎产  地 美国
◎类  别 剧情 / 爱情 / 音乐
◎语  言 英语
◎上映日期 2020-05-29(美国)
◎IMDb评分 6.2/10 from 2632 users
◎IMDb链接 https://www.imdb.com/title/tt9308382
◎豆瓣评分 6.8/10 from 206 users
◎豆瓣链接 https://movie.douban.com/subject/33456586/
◎导  演 尼萨·加纳特 Nisha Ganatra
◎编  剧 Flora Greeson
◎主  演 达科塔·约翰逊 Dakota Johnson
      特雷西·埃利斯·罗斯 Tracee Ellis Ross
      小凯文·哈里森 Kelvin Harrison Jr.
      艾斯·库珀 Ice Cube
      佐伊·晁 Zo? Chao
      艾迪·伊扎德 Eddie Izzard
      比尔·普尔曼 Bill Pullman
      迪柏洛 Diplo
      琼·黛安·拉斐尔 June Diane Raphael
      本·刘易斯 Ben Lewis
      德尼·阿克代尼兹 Deniz Akdeniz
      桑德拉·罗斯科 Sandra Rosko
      Rupak Ginn
      杰弗里·塞尔夫 Jeffery Self
      Alexandra Vassell
      Molly Malin
      Sonal Shah


◎标  签 音乐 | 2020 | 达科塔·约翰逊 | 美国 | DakotaJohnson | 轻喜剧 | 美国电影 | 剧情

◎简  介

  达科塔·约翰逊(《五十度灰》)和特雷西·埃利斯·罗斯(《喜新不厌旧》)主演的音乐剧情片《高调》发布预告,天后歌手和她的私人助理的故事。天后看似高傲没心没肺,实则对自己40岁后的发展而倍感压力,想寻求艺术上的突破;助理很感激能跟对方合作,但苦于自己碌碌无为只能做杂事,想施展音乐制作方面的才华。此时,可能同时改变两人人生的机会来了:天后将发行下一张专辑,她打破陈规,邀请自荐的助理来担任新专制作人。她们能成功吗?

Video
ID : 1
Format : AVC
Format/Info : Advanced Video Codec
Format profile : [email protected]
Format settings : CABAC / 4 Ref Frames
Format settings, CABAC : Yes
Format settings, Reference frames : 4 frames
Codec ID : V_MPEG4/ISO/AVC
Duration : 1 h 52 min
Bit rate : 5 500 kb/s
Width : 1 280 pixels
Height : 536 pixels
Display aspect ratio : 2.40:1
Frame rate mode : Constant
Frame rate : 23.976 (24000/1001/189150) FPS
Color space : YUV
Chroma subsampling : 4:2:0
Bit depth : 8 bits
Scan type : Progressive
Bits/(Pixel*Frame) : 0.334
Stream size : 4.34 GiB (78%)
Title : The.High.Note.2020.720p.BluRay.x264.DTS-FGT
Writing library : x264 core 148 r2795M aaa9aa8
Encoding settings : cabac=1 / ref=4 / deblock=1:-2:-2 / analyse=0x3:0x113 / me=umh / subme=9 / psy=1 / psy_rd=1.00:0.15 / mixed_ref=1 / me_range=16 / chroma_me=1 / trellis=2 / 8x8dct=1 / cqm=0 / deadzone=21,11 / fast_pskip=1 / chroma_qp_offset=-3 / threads=72 / lookahead_threads=3 / sliced_threads=0 / nr=0 / decimate=1 / interlaced=0 / bluray_compat=0 / constrained_intra=0 / bframes=3 / b_pyramid=2 / b_adapt=1 / b_bias=0 / direct=3 / weightb=1 / open_gop=0 / weightp=2 / keyint=250 / keyint_min=25 / scenecut=40 / intra_refresh=0 / rc_lookahead=50 / rc=2pass / mbtree=1 / bitrate=5500 / ratetol=1.0 / qcomp=0.60 / qpmin=0 / qpmax=69 / qpstep=4 / cplxblur=20.0 / qblur=0.5 / vbv_maxrate=31250 / vbv_bufsize=31250 / nal_hrd=none / filler=0 / ip_ratio=1.40 / aq=1:1.00
Language : English
Default : Yes
Forced : No

Audio
ID : 2
Format : DTS
Format/Info : Digital Theater Systems
Codec ID : A_DTS
Duration : 1 h 52 min
Bit rate mode : Constant
Bit rate : 1 509 kb/s
Channel(s) : 6 channels
Channel layout : C L R Ls Rs LFE
Sampling rate : 48.0 kHz
Frame rate : 93.750 FPS (512 SPF)
Bit depth : 24 bits
Compression mode : Lossy
Stream size : 1.19 GiB (22%)
Title : The.High.Note.2020.720p.BluRay.x264.DTS-FGT
Language : English
Default : Yes
Forced : No

Text
ID : 3
Format : UTF-8
Codec ID : S_TEXT/UTF8
Codec ID/Info : UTF-8 Plain Text
Duration : 1 h 52 min
Bit rate : 76 b/s
Count of elements : 2063
Stream size : 63.4 KiB (0%)
Language : English
Default : Yes
Forced : No

Menu
00:00:00.000 : en:Chapter 01
00:05:26.576 : en:Chapter 02
00:10:56.405 : en:Chapter 03
00:17:38.599 : en:Chapter 04
00:24:26.756 : en:Chapter 05
00:30:27.951 : en:Chapter 06
00:36:54.128 : en:Chapter 07
00:40:24.630 : en:Chapter 08
00:45:30.936 : en:Chapter 09
00:50:39.244 : en:Chapter 10
00:55:38.877 : en:Chapter 11
01:01:54.585 : en:Chapter 12
01:07:11.110 : en:Chapter 13
01:12:34.683 : en:Chapter 14
01:18:56.231 : en:Chapter 15
01:23:55.155 : en:Chapter 16
01:28:39.355 : en:Chapter 17
01:33:18.884 : en:Chapter 18
01:41:49.978 : en:Chapter 19
01:46:15.744 : en:Chapter 20





1 个附件 售价 大小 下载 时间

The.High.Note.2020.720p.BluRay.x264.DTS-FGT.zip 0 金币 29.08K 168 次 12天前

#1楼
发帖时间:2020-08-02 08:45:52   |   回复数:0
游客组