squallzhao
一派掌门

[2019] [其他] [剧情] [BD-1080P] 九龍不敗 Invincible.Dragon.2019.CHINESE.1080p.BluRay.x264.DTS-CHD 7.81GB

-->

帖子完整标题:九龍不敗 Invincible.Dragon.2019.CHINESE.1080p.BluRay.x264.DTS-CHD 7.81GB



◎译  名 九龙不败 / Dragon Tattoo / The Invincible Dragon
◎片  名 九龍不敗
◎年  代 2019
◎产  地 中国香港 / 中国大陆
◎类  别 剧情 / 动作 / 犯罪
◎语  言 粤语 / 英语 / 汉语普通话
◎上映日期 2019-06-20(中国香港) / 2019-07-02(中国大陆)
◎IMDb评分 5.3/10 from 529 users
◎IMDb链接 https://www.imdb.com/title/tt6329716
◎豆瓣评分 3.1/10 from 7976 users
◎豆瓣链接 https://movie.douban.com/subject/26796665/
◎片  长 100分钟
◎导  演 陈果 Fruit Chan
◎编  剧 陈果 Fruit Chan / 林纪陶 Kee-To Lam
◎主  演 张晋 Max Zhang
      Anderson Silva
      郑嘉颖 Kevin Cheng
      刘心悠 Annie Liu
      邓丽欣 Stephy Tang
      陈钰芸 Juju Chan
      周国贤 Endy Chow
      吴岱融 Hugo Ng Doi-Yung
      吴耀汉 Richard Ng
      吴嘉龙 Carl Wu
      罗孝勇 Sheldon Lo
      张松枝 Deno Cheung
      周子扬 Ziyang Zhou
      廖骏雄 Chun Hung Liao
      方志駒 Vernon Fong


◎标  签 动作 | 香港 | 犯罪 | 警匪 | 功夫 | 2018 | 剧情 | 西装暴徒

◎简  介

  警探九龙(张晋 饰) ,查案方式奇异狠辣却屡建奇功,是叱咤香港警界的精英干探, 但他处事独断爆裂,又被警队视为“偏执狂人”。九龙奉命调查一桩妙龄女警连环被凶杀案,用尽手段后不仅毫无线索, 他的警花未婚妻方宁(邓丽欣 饰)竟然也在这场抓捕行动中意外失踪。在爱与痛的边缘挣扎的九龙,突然发现女警连环遇害只是第一步,凶手还有着更加血腥的阴谋,自己和未婚妻竟然也被算计其中。此时澳门再度发生女警被杀案,这次的作案手法更加令人发指,但凶手好像故意留下了线索,是危险陷阱还是复仇曙光?九龙义无反顾出发,在好友王梦奇(刘心悠 饰)及国际拳王冼力山(Anderson The Spider Silva 饰)的协助下, 与澳门警司曹志德(郑嘉颖 饰)联手展开调查。魔高一丈,道高几何!血债血偿之前,就算流干最后一滴血,也要誓不罢休。

Video
ID : 1
Format : AVC
Format/Info : Advanced Video Codec
Format profile : [email protected]
Format settings : CABAC / 4 Ref Frames
Format settings, CABAC : Yes
Format settings, Reference frames : 4 frames
Codec ID : V_MPEG4/ISO/AVC
Duration : 1 h 38 min
Bit rate : 8 320 kb/s
Width : 1 920 pixels
Height : 804 pixels
Display aspect ratio : 2.40:1
Frame rate mode : Constant
Frame rate : 24.000 FPS
Color space : YUV
Chroma subsampling : 4:2:0
Bit depth : 8 bits
Scan type : Progressive
Bits/(Pixel*Frame) : 0.225
Stream size : 5.73 GiB (73%)
Writing library : x264 core 157 r2867+150 7e91e0e t_mod_Custom_2 [[email protected] X86_64]
Encoding settings : cabac=1 / ref=4 / deblock=1:-3:-3 / analyse=0x3:0x133 / me=umh / subme=11 / psy=1 / fade_compensate=0.00 / psy_rd=0.90:0.10 / mixed_ref=1 / me_range=64 / chroma_me=1 / trellis=2 / 8x8dct=1 / cqm=0 / deadzone=21,11 / fast_pskip=0 / chroma_qp_offset=-4 / threads=25 / lookahead_threads=4 / sliced_threads=0 / nr=0 / decimate=1 / interlaced=0 / bluray_compat=0 / constrained_intra=0 / fgo=0 / bframes=8 / b_pyramid=2 / b_adapt=2 / b_bias=0 / direct=3 / weightb=1 / open_gop=0 / weightp=2 / keyint=250 / keyint_min=24 / scenecut=40 / intra_refresh=0 / rc_lookahead=60 / rc=crf / mbtree=0 / crf=18.0000 / qcomp=0.70 / qpmin=0:0:0 / qpmax=69:69:69 / qpstep=4 / vbv_maxrate=35000 / vbv_bufsize=35000 / crf_max=0.0 / nal_hrd=none / filler=0 / ip_ratio=1.40 / pb_ratio=1.30 / aq=3:1.00 / aq-sensitivity=10.00 / aq-factor=1.00:1.00:1.00 / aq2=0 / aq3=0
Language : Chinese
Default : Yes
Forced : No

Audio #1
ID : 2
Format : DTS
Format/Info : Digital Theater Systems
Codec ID : A_DTS
Duration : 1 h 38 min
Bit rate mode : Constant
Bit rate : 1 509 kb/s
Channel(s) : 6 channels
Channel layout : C L R Ls Rs LFE
Sampling rate : 48.0 kHz
Frame rate : 93.750 FPS (512 SPF)
Bit depth : 16 bits
Compression mode : Lossy
Stream size : 1.04 GiB (13%)
Language : Chinese
Default : Yes
Forced : No

Audio #2
ID : 3
Format : DTS
Format/Info : Digital Theater Systems
Codec ID : A_DTS
Duration : 1 h 38 min
Bit rate mode : Constant
Bit rate : 1 509 kb/s
Channel(s) : 6 channels
Channel layout : C L R Ls Rs LFE
Sampling rate : 48.0 kHz
Frame rate : 93.750 FPS (512 SPF)
Bit depth : 16 bits
Compression mode : Lossy
Stream size : 1.04 GiB (13%)
Language : Chinese
Default : No
Forced : No

Text
ID : 4
Format : UTF-8
Codec ID : S_TEXT/UTF8
Codec ID/Info : UTF-8 Plain Text
Duration : 1 h 34 min
Bit rate : 50 b/s
Count of elements : 1378
Stream size : 35.2 KiB (0%)
Language : English
Default : Yes
Forced : No

Menu
00:00:00.000 : en:绗?01 绔?
00:05:57.583 : en:绗?02 绔?
00:11:06.083 : en:绗?03 绔?
00:15:39.375 : en:绗?04 绔?
00:20:26.875 : en:绗?05 绔?
00:23:31.625 : en:绗?06 绔?
00:27:44.833 : en:绗?07 绔?
00:30:51.417 : en:绗?08 绔?
00:34:38.292 : en:绗?09 绔?
00:40:35.125 : en:绗?10 绔?
00:46:32.375 : en:绗?11 绔?
00:52:25.417 : en:绗?12 绔?
00:57:19.083 : en:绗?13 绔?
01:01:24.000 : en:绗?14 绔?
01:05:38.375 : en:绗?15 绔?
01:08:45.958 : en:绗?16 绔?
01:15:54.417 : en:绗?17 绔?
01:21:40.917 : en:绗?18 绔?
01:26:23.583 : en:绗?19 绔?
01:34:21.208 : en:绗?20 绔?





1 个附件 售价 大小 下载 时间

Invincible.Dragon.2019.CHINESE.1080p.BluRay.x264.DTS-CHD.zip 0 金币 39.75K 1246 次 12天前

#1楼
发帖时间:2020-08-02 09:04:00   |   回复数:2
liyouchai
隐世仙人♂
谢谢楼主分享资源
11天前 #2楼
kola13
武林盟主
感谢分享
11天前 #3楼
游客组