squallzhao
一派掌门

[2014] [欧美] [喜剧] [BD-1080P] 喝得酩酊大醉的辉煌死:国家讽刺的故事 National.Lampoon.Drunk.Stoned.Brilliant.Dead.2015.DOCU.1080p.

-->

帖子完整标题:喝得酩酊大醉的辉煌死:国家讽刺的故事 National.Lampoon.Drunk.Stoned.Brilliant.Dead.2015.DOCU.1080p.BluRay.x264-PSYCHD 6.59GB



◎译  名 喝得酩酊大醉的辉煌死:国家讽刺的故事
◎片  名 Drunk Stoned Brilliant Dead: The Story of the National Lampoon
◎年  代 2014
◎产  地 美国
◎类  别 喜剧 / 纪录片 / 传记 / 历史
◎语  言 英语
◎上映日期 2015-09-25(美国)
◎IMDb评分 7.2/10 from 2047 users
◎IMDb链接 https://www.imdb.com/title/tt1674785
◎豆瓣评分 0/10 from 0 users
◎豆瓣链接 https://movie.douban.com/subject/5337947/
◎导  演 Douglas Tirola
◎编  剧 Douglas Tirola / 马克·蒙雷 Mark Monroe
◎主  演 贾德·阿帕图 Judd Apatow
      切维·切斯 Chevy Chase
      George Coe
      约翰·坎迪 John Candy
      理查德·贝尔泽 Richard Belzer
      约翰·贝鲁西 John Belushi
      阿尔·让 Al Jean
      比尔·默瑞 Bill Murray


◎标  签 美国 | 纪录片 | 电影 | National.Lampoon | 2015 | 喜剧 | 传记 | Pop.Culture

◎简  介

  Featuring rare and never before seen footage, this is the mind boggling story of The National Lampoon from its subversive and electrifying beginnings, to rebirth as an unlikely Hollywood heavyweight, and beyond. A humour empire like no other, the impact of the magazines irreverent, often shocking, sensibility was nothing short of seismic: this is an institution whose (drunk stoned brilliant) alumni left their fingerprints all over popular culture. Both insanely great and breathtakingly innovative, The National Lampoon created the foundation of modern comic sensibility by setting the bar in comedy impossibly high.

Video
ID : 1
Format : AVC
Format/Info : Advanced Video Codec
Format profile : [email protected]
Format settings : CABAC / 4 Ref Frames
Format settings, CABAC : Yes
Format settings, Reference frames : 4 frames
Codec ID : V_MPEG4/ISO/AVC
Duration : 1 h 34 min
Bit rate : 8 383 kb/s
Width : 1 920 pixels
Height : 1 080 pixels
Display aspect ratio : 16:9
Frame rate mode : Constant
Frame rate : 23.976 (24000/1001/189150) FPS
Color space : YUV
Chroma subsampling : 4:2:0
Bit depth : 8 bits
Scan type : Progressive
Bits/(Pixel*Frame) : 0.169
Stream size : 5.43 GiB (83%)
Writing library : x264 core 148 r2665 a01e339
Encoding settings : cabac=1 / ref=4 / deblock=1:-3:-3 / analyse=0x3:0x113 / me=umh / subme=8 / psy=1 / psy_rd=1.00:0.00 / mixed_ref=1 / me_range=32 / chroma_me=1 / trellis=1 / 8x8dct=1 / cqm=0 / deadzone=21,11 / fast_pskip=1 / chroma_qp_offset=-2 / threads=24 / lookahead_threads=4 / sliced_threads=0 / nr=0 / decimate=1 / interlaced=0 / bluray_compat=0 / constrained_intra=0 / bframes=3 / b_pyramid=2 / b_adapt=2 / b_bias=0 / direct=3 / weightb=1 / open_gop=0 / weightp=2 / keyint=240 / keyint_min=24 / scenecut=40 / intra_refresh=0 / rc_lookahead=50 / rc=2pass / mbtree=1 / bitrate=8383 / ratetol=1.0 / qcomp=0.60 / qpmin=0 / qpmax=69 / qpstep=4 / cplxblur=20.0 / qblur=0.5 / ip_ratio=1.40 / aq=3:0.80
Default : Yes
Forced : No
Statistics Tags Issue : no_variable_data 1970-01-01 00:00:00 / no_variable_data 2010-02-22 21:41:29
FromStats_BitRate : 8382272
FromStats_Duration : 01:34:54.439000000
FromStats_FrameCount : 136530
FromStats_StreamSize : 5966542781

Audio
ID : 2
Format : DTS
Format/Info : Digital Theater Systems
Codec ID : A_DTS
Duration : 1 h 34 min
Bit rate mode : Constant
Bit rate : 1 509 kb/s
Channel(s) : 6 channels
Channel layout : C L R Ls Rs LFE
Sampling rate : 48.0 kHz
Frame rate : 93.750 FPS (512 SPF)
Bit depth : 24 bits
Compression mode : Lossy
Stream size : 1.00 GiB (15%)
Language : English
Default : Yes
Forced : No
Statistics Tags Issue : no_variable_data 1970-01-01 00:00:00 / no_variable_data 2010-02-22 21:41:29
FromStats_BitRate : 1508999
FromStats_Duration : 01:34:54.443000000
FromStats_FrameCount : 533854
FromStats_StreamSize : 1074114248

Text #1
ID : 3
Format : UTF-8
Codec ID : S_TEXT/UTF8
Codec ID/Info : UTF-8 Plain Text
Language : English
Default : No
Forced : No
Statistics Tags Issue : no_variable_data 1970-01-01 00:00:00 / no_variable_data 2010-02-22 21:41:29
FromStats_BitRate : 96
FromStats_Duration : 01:34:48.682000000
FromStats_FrameCount : 1660
FromStats_StreamSize : 68947

Text #2
ID : 4
Format : UTF-8
Codec ID : S_TEXT/UTF8
Codec ID/Info : UTF-8 Plain Text
Title : SDH
Language : English
Default : No
Forced : No
Statistics Tags Issue : no_variable_data 1970-01-01 00:00:00 / no_variable_data 2010-02-22 21:41:29
FromStats_BitRate : 106
FromStats_Duration : 01:34:48.682000000
FromStats_FrameCount : 1806
FromStats_StreamSize : 75769

Menu
00:00:00.000 : en:00:00:00.000
00:04:47.496 : en:00:04:47.496
00:09:38.161 : en:00:09:38.161
00:17:00.269 : en:00:17:00.269
00:21:28.829 : en:00:21:28.829
00:27:15.968 : en:00:27:15.968
00:32:45.714 : en:00:32:45.714
00:39:12.058 : en:00:39:12.058
00:44:40.219 : en:00:44:40.219
00:50:28.192 : en:00:50:28.192
00:56:44.818 : en:00:56:44.818
01:02:28.536 : en:01:02:28.536
01:08:11.796 : en:01:08:11.796
01:15:54.258 : en:01:15:54.258
01:21:45.651 : en:01:21:45.651
01:28:47.280 : en:01:28:47.280





1 个附件 售价 大小 下载 时间

National.Lampoon.Drunk.Stoned.Brilliant.Dead.2015.DOCU.1080p.BluRay.x264-PSYCHD.zip 0 金币 133.40K 294 次 12天前

#1楼
发帖时间:2020-08-02 09:08:40   |   回复数:0
游客组