fg603603
武林盟主

[更 早] [欧美] [喜剧] [BD-1080P] 鬼头大兵/发财妙计 Sgt.Bilko.1996.1080p.BluRay.x264-PSYCHD 9.83GB

-->

帖子完整标题:鬼头大兵/发财妙计 Sgt.Bilko.1996.1080p.BluRay.x264-PSYCHD 9.83GB



◎译  名 鬼头大兵/发财妙计/妙趣沙展
◎片  名 Sgt. Bilko
◎年  代 1996
◎产  地 美国
◎类  别 喜剧
◎语  言 英语
◎上映日期 1996-03-29
◎IMDb评分 5.9/10 from 21198 users
◎IMDb链接 https://www.imdb.com/title/tt0117608/
◎豆瓣评分 7.4/10 from 632 users
◎豆瓣链接 https://movie.douban.com/subject/1293183/
◎片  长 93 分钟
◎导  演 乔纳森·林恩 Jonathan Lynn
◎编  剧 纳特·希肯 Nat Hiken / 安迪·布莱克曼 Andy Breckman
◎主  演 史蒂夫·马丁 Steve Martin
      丹·艾克罗伊德 Dan Aykroyd
      菲尔·哈特曼 Phil Hartman
      格伦妮·海德利 Glenne Headly
      达里尔·米切尔 Daryl Mitchell
      马克斯·凯塞拉 Max Casella
      埃里克·爱德华兹 Eric Edwards
      布莱恩·雷科内尔 Brian Leckner
      约翰·奥提兹 John Ortiz
      帕梅拉·阿德龙 Pamela Adlon
      米歇尔·维特菲尔德 Mitchell Whitfield
      奥斯汀·潘德尔顿 Austin Pendleton
      克里斯·洛克 Chris Rock
      查尔斯·C·史蒂文森 Charles C. Stevenson Jr.
      Ursula Burton

◎标  签 喜剧 | 美国 | 无厘头 | 恶搞 | 搞笑 | 美国电影 | 1996 | 电影

◎简  介

  This movie is a remake of the hit series which starred, Phil Silvers as Sgt. Bilko. In this movie, Bilko tuns the motor pool and has all sorts of scams going on like gambling, renting out military vehicles, and so on, which are all violations. However, his commanding officer, Colonel Hall overlooks them, cause he is more concerned about his future, cause a lot of bases are being closed, and the inspector, Major Thorn was on the verge of doing that. But when he heard that Bilko was on the base, he turned into a mad dog. It seems that Thorn was a "thorn" in Bilko's side many years ago but through a series of misunderstandings, Thorn was accused of carrying out or being the brains behind one of Bilko's schemes, he would be sent to Greenland and his career has not gone as he hoped it would and now wants revenge on Bilko. Written by {[email?protected]}

Video
ID : 1
Format : AVC
Format/Info : Advanced Video Codec
Format profile : [email protected]
Format settings : CABAC / 5 Ref Frames
Format settings, CABAC : Yes
Format settings, Reference frames : 5 frames
Codec ID : V_MPEG4/ISO/AVC
Duration : 1 h 34 min
Bit rate : 13.4 Mb/s
Width : 1 920 pixels
Height : 824 pixels
Display aspect ratio : 2.35:1
Frame rate mode : Constant
Frame rate : 23.976 (24000/1001/189150) FPS
Color space : YUV
Chroma subsampling : 4:2:0
Bit depth : 8 bits
Scan type : Progressive
Bits/(Pixel*Frame) : 0.355
Stream size : 8.65 GiB (88%)
Writing library : x264 core 150 r2833 df79067
Encoding settings : cabac=1 / ref=5 / deblock=1:-3:-3 / analyse=0x3:0x113 / me=hex / subme=8 / psy=1 / psy_rd=1.12:0.00 / mixed_ref=1 / me_range=16 / chroma_me=1 / trellis=2 / 8x8dct=1 / cqm=0 / deadzone=21,11 / fast_pskip=1 / chroma_qp_offset=-2 / threads=6 / lookahead_threads=1 / sliced_threads=0 / nr=0 / decimate=1 / interlaced=0 / bluray_compat=0 / constrained_intra=0 / bframes=3 / b_pyramid=2 / b_adapt=2 / b_bias=0 / direct=3 / weightb=1 / open_gop=0 / weightp=2 / keyint=240 / keyint_min=24 / scenecut=40 / intra_refresh=0 / rc_lookahead=50 / rc=2pass / mbtree=1 / bitrate=13450 / ratetol=1.0 / qcomp=0.60 / qpmin=0 / qpmax=69 / qpstep=4 / cplxblur=20.0 / qblur=0.5 / ip_ratio=1.40 / aq=3:0.75
Default : Yes
Forced : No
Statistics Tags Issue : no_variable_data 1970-01-01 00:00:00 / no_variable_data 2010-02-22 21:41:29
FromStats_BitRate : 13444135
FromStats_Duration : 01:34:07.642000000
FromStats_FrameCount : 135408
FromStats_StreamSize : 9490958186

Audio
ID : 2
Format : DTS
Format/Info : Digital Theater Systems
Codec ID : A_DTS
Duration : 1 h 34 min
Bit rate mode : Constant
Bit rate : 1 509 kb/s
Channel(s) : 5 channels
Channel layout : C L R Ls Rs
Sampling rate : 48.0 kHz
Frame rate : 93.750 FPS (512 SPF)
Bit depth : 24 bits
Compression mode : Lossy
Stream size : 1 016 MiB (10%)
Language : English
Default : Yes
Forced : No
Statistics Tags Issue : no_variable_data 1970-01-01 00:00:00 / no_variable_data 2010-02-22 21:41:29
FromStats_BitRate : 1509000
FromStats_Duration : 01:34:07.648000000
FromStats_FrameCount : 529467
FromStats_StreamSize : 1065287604

Menu
00:00:00.000 : en:00:00:00.000
00:08:14.119 : en:00:08:14.119
00:15:09.992 : en:00:15:09.992
00:23:24.028 : en:00:23:24.028
00:30:34.041 : en:00:30:34.041
00:36:35.026 : en:00:36:35.026
00:44:46.058 : en:00:44:46.058
00:53:13.273 : en:00:53:13.273
00:59:43.163 : en:00:59:43.163
01:11:10.224 : en:01:11:10.224
01:19:25.219 : en:01:19:25.219
01:29:50.594 : en:01:29:50.594





1 个附件 售价 大小 下载 时间

Sgt.Bilko.1996.1080p.BluRay.x264-PSYCHD.zip 0 金币 99.81K 315 次 13天前

#1楼
发帖时间:2020-09-16 21:59:24   |   回复数:0
游客组