fg603603
武林盟主

[2014] [欧美] [科幻] [BD-1080P] 漆黑如夜 Dark.Was.the.Night.2014.1080p.BluRay.x264-PSYCHD 6.56GB

-->

帖子完整标题:漆黑如夜 Dark.Was.the.Night.2014.1080p.BluRay.x264-PSYCHD 6.56GB



◎译  名 漆黑如夜
◎片  名 Dark Was the Night
◎年  代 2014
◎产  地 美国
◎类  别 科幻 / 惊悚 / 恐怖
◎语  言 英语
◎上映日期 2014-10-16
◎IMDb评分 5.6/10 from 8663 users
◎IMDb链接 https://www.imdb.com/title/tt2251281/
◎豆瓣评分 4.8/10 from 903 users
◎豆瓣链接 https://movie.douban.com/subject/10604556/
◎导  演 杰克·海勒 Jack Heller
◎主  演 凯文·杜兰 Kevin Durand
      伊桑·库斯德曼 Ethan Khusidman
      汤姆·威廉姆森 Tom Williamson

◎标  签 恐怖 | 惊悚 | 美国 | 怪物 | 美国电影 | 2014 | 金发女郎很漂亮 | 不好看

◎简  介

  故事发生在某个毗邻原始森林的小镇,一家伐木公司正在林中作业,这时白雪飘然落下,作业暂时停止,然而随即便发生了残酷血腥的事件。与此同时,警长保罗·希尔德(凯文·杜兰德 Kevin Durand 饰)和新来的搭档唐尼刚刚敷衍完几个报警事件,随后驱车来到前妻苏珊(Bianca Kajlich 饰)的家中,接走儿子亚当(Ethan Khusidman 饰)回自家居住。一夜无事,次日一早,保罗在门口发现硕大的脚印,而且脚印遍布小镇主干道,一直延伸到森林深处。巨大的脚印在小镇闹得人心惶惶,保罗起初绝不相信妖精怪物一类的传说,但是恐怖血腥的事件接二连三发生,让小镇陷入前所未有的恐慌之中。
  
  危机渐次逼近……

Video
ID : 1
Format : AVC
Format/Info : Advanced Video Codec
Format profile : [email protected]
Format settings : CABAC / 5 Ref Frames
Format settings, CABAC : Yes
Format settings, Reference frames : 5 frames
Codec ID : V_MPEG4/ISO/AVC
Duration : 1 h 38 min
Bit rate : 8 017 kb/s
Width : 1 920 pixels
Height : 800 pixels
Display aspect ratio : 2.40:1
Frame rate mode : Constant
Frame rate : 23.976 (24000/1001/189150) FPS
Color space : YUV
Chroma subsampling : 4:2:0
Bit depth : 8 bits
Scan type : Progressive
Bits/(Pixel*Frame) : 0.218
Stream size : 5.39 GiB (82%)
Writing library : x264 core 148 r2665 a01e339
Encoding settings : cabac=1 / ref=5 / deblock=1:-3:-3 / analyse=0x3:0x113 / me=umh / subme=8 / psy=1 / psy_rd=1.00:0.00 / mixed_ref=1 / me_range=32 / chroma_me=1 / trellis=1 / 8x8dct=1 / cqm=0 / deadzone=21,11 / fast_pskip=1 / chroma_qp_offset=-2 / threads=18 / lookahead_threads=3 / sliced_threads=0 / nr=0 / decimate=1 / interlaced=0 / bluray_compat=0 / constrained_intra=0 / bframes=3 / b_pyramid=2 / b_adapt=2 / b_bias=0 / direct=3 / weightb=1 / open_gop=0 / weightp=2 / keyint=240 / keyint_min=24 / scenecut=40 / intra_refresh=0 / rc_lookahead=50 / rc=2pass / mbtree=1 / bitrate=8017 / ratetol=1.0 / qcomp=0.60 / qpmin=0 / qpmax=69 / qpstep=4 / cplxblur=20.0 / qblur=0.5 / ip_ratio=1.40 / aq=3:0.80
Language : English
Default : Yes
Forced : No
Statistics Tags Issue : no_variable_data 1970-01-01 00:00:00 / no_variable_data 2010-02-22 21:41:29
FromStats_BitRate : 8014940
FromStats_Duration : 01:38:33.158000000
FromStats_FrameCount : 141774
FromStats_StreamSize : 5924201253

Audio
ID : 2
Format : DTS
Format/Info : Digital Theater Systems
Codec ID : A_DTS
Duration : 1 h 38 min
Bit rate mode : Constant
Bit rate : 1 509 kb/s
Channel(s) : 6 channels
Channel layout : C L R Ls Rs LFE
Sampling rate : 48.0 kHz
Frame rate : 93.750 FPS (512 SPF)
Bit depth : 24 bits
Compression mode : Lossy
Stream size : 1.04 GiB (16%)
Language : English
Default : Yes
Forced : No
Statistics Tags Issue : no_variable_data 1970-01-01 00:00:00 / no_variable_data 2010-02-22 21:41:29
FromStats_BitRate : 1508999
FromStats_Duration : 01:38:32.150000000
FromStats_FrameCount : 554264
FromStats_StreamSize : 1115179168

Text #1
ID : 3
Format : UTF-8
Codec ID : S_TEXT/UTF8
Codec ID/Info : UTF-8 Plain Text
Language : English
Default : No
Forced : No
Statistics Tags Issue : no_variable_data 1970-01-01 00:00:00 / no_variable_data 2010-02-22 21:41:29
FromStats_BitRate : 41
FromStats_Duration : 01:28:47.863000000
FromStats_FrameCount : 1005
FromStats_StreamSize : 27830

Text #2
ID : 4
Format : UTF-8
Codec ID : S_TEXT/UTF8
Codec ID/Info : UTF-8 Plain Text
Title : SDH
Language : English
Default : No
Forced : No
Statistics Tags Issue : no_variable_data 1970-01-01 00:00:00 / no_variable_data 2010-02-22 21:41:29
FromStats_BitRate : 49
FromStats_Duration : 01:30:18.412000000
FromStats_FrameCount : 1180
FromStats_StreamSize : 33728

Menu
00:00:00.000 : en:00:00:00.000
00:04:20.260 : en:00:04:20.260
00:13:46.534 : en:00:13:46.534
00:21:56.398 : en:00:21:56.398
00:35:25.665 : en:00:35:25.665
00:53:54.690 : en:00:53:54.690
01:12:13.788 : en:01:12:13.788
01:30:48.902 : en:01:30:48.902





1 个附件 售价 大小 下载 时间

Dark.Was.the.Night.2014.1080p.BluRay.x264-PSYCHD.zip 0 金币 67.03K 175 次 13天前

#1楼
发帖时间:2020-09-16 22:03:18   |   回复数:0
游客组