q3r3
武林盟主

[更 早] [其他] [喜剧] [BD-1080P] 群尸玩过界 Dead.Alive.1992.1080p.BluRay.X264-AMIABLE 6.56GB

-->

帖子完整标题:群尸玩过界 Dead.Alive.1992.1080p.BluRay.X264-AMIABLE 6.56GB



◎译  名 群尸玩过界/Dead Alive/新空房禁地
◎片  名 Braindead
◎年  代 1992
◎产  地 新西兰
◎类  别 喜剧 / 恐怖
◎语  言 英语,西班牙语
◎上映日期 1992-08-13
◎IMDb评分 7.5/10 from 90144 users
◎IMDb链接 https://www.imdb.com/title/tt0103873/
◎豆瓣评分 7.8/10 from 27870 users
◎豆瓣链接 https://movie.douban.com/subject/1300377/
◎片  长 104 分钟
◎导  演 彼得·杰克逊 Peter Jackson
◎编  剧 斯蒂芬·辛克莱 Stephen Sinclair / 彼得·杰克逊 Peter Jackson / 弗兰·威尔士 Fran Walsh
◎主  演 蒂莫西·贝尔米 Timothy Balme
      黛安娜·培耶 Diana Pe?alver
      伊丽莎白·穆迪 Elizabeth Moody
      Murray Keane
      斯蒂芬·帕普斯 Stephen Papps
      George Port
      杰米·塞尔柯克 Jamie Selkirk
      Harry Sinclair
      Tony Hiles
      Jim Booth
      弗兰·威尔士 Fran Walsh
      彼得·杰克逊 Peter Jackson
      福里斯特·J·阿克曼 Forrest J. Ackerman
      詹姆斯·格兰特 James Grant
      Brenda Kendall
      布莱恩·瑟金特 Brian Sergent
      Ian Watkin
      Davina Whitehouse

◎标  签 恐怖 | 血腥 | 僵尸 | 黑色幽默 | cult | 喜剧 | 丧尸 | 新西兰

◎简  介

  故事开始于一支在苏门答腊岛活动的探险队,他们发现了当地一种长相怪异的鼠猴,便带回去卖给动物园,不料却因此酿出一个恶果。
  
  莱尼(蒂莫西 巴姆Timothy Balme 饰)有着对他十分依赖的母亲,这天母亲被困在笼里的鼠猴咬了一口。不久后,她开始变得诡异万分,莱尼甚至看见她吃蜘蛛、咬狗,行为癫狂。莱尼请来医生护士,却被母亲撕咬后继而变成僵尸。明知母亲成为高度危险的人物,莱尼却不舍得伤害她,只把她和僵尸困在房间里。不料星星之火可以燎原,在莱尼家的一场舞会中,一大群人遭殃,他们变成乱七八糟的僵尸怪物横冲直撞,莱尼挥出电锯,杀得气喘呼呼,血肉四溅,情急下,莱尼心爱的却已变了质的母亲,也不能幸免。

Video
ID : 1
Format : AVC
Format/Info : Advanced Video Codec
Format profile : [email protected]
Format settings : CABAC / 4 Ref Frames
Format settings, CABAC : Yes
Format settings, Reference frames : 4 frames
Codec ID : V_MPEG4/ISO/AVC
Duration : 1 h 37 min
Bit rate : 8 142 kb/s
Width : 1 920 pixels
Height : 1 080 pixels
Display aspect ratio : 16:9
Frame rate mode : Constant
Frame rate : 23.976 (24000/1001/189150) FPS
Color space : YUV
Chroma subsampling : 4:2:0
Bit depth : 8 bits
Scan type : Progressive
Bits/(Pixel*Frame) : 0.164
Stream size : 5.40 GiB (82%)
Writing library : x264 core 118 r2085 8a62835
Encoding settings : cabac=1 / ref=4 / deblock=1:0:0 / analyse=0x3:0x113 / me=umh / subme=8 / psy=1 / psy_rd=1.00:0.00 / mixed_ref=1 / me_range=16 / chroma_me=1 / trellis=1 / 8x8dct=1 / cqm=0 / deadzone=21,11 / fast_pskip=1 / chroma_qp_offset=-2 / threads=12 / sliced_threads=0 / nr=0 / decimate=1 / interlaced=0 / bluray_compat=0 / constrained_intra=0 / bframes=3 / b_pyramid=2 / b_adapt=2 / b_bias=0 / direct=3 / weightb=1 / open_gop=0 / weightp=2 / keyint=240 / keyint_min=24 / scenecut=40 / intra_refresh=0 / rc_lookahead=50 / rc=2pass / mbtree=1 / bitrate=8142 / ratetol=1.0 / qcomp=0.60 / qpmin=0 / qpmax=69 / qpstep=4 / cplxblur=20.0 / qblur=0.5 / ip_ratio=1.40 / aq=1:1.00
Language : English
Default : Yes
Forced : No

Audio
ID : 2
Format : DTS
Format/Info : Digital Theater Systems
Codec ID : A_DTS
Duration : 1 h 37 min
Bit rate mode : Constant
Bit rate : 1 509 kb/s
Channel(s) : 6 channels
Channel(s)_Original : 2 channels
ChannelLayout_Original : L R
Sampling rate : 48.0 kHz
Frame rate : 93.750 FPS (512 SPF)
Bit depth : 24 bits
Compression mode : Lossy
Stream size : 1.03 GiB (16%)
Language : English
Default : Yes
Forced : No

Text
ID : 3
Format : UTF-8
Codec ID : S_TEXT/UTF8
Codec ID/Info : UTF-8 Plain Text
Language : English
Default : No
Forced : No

Menu
00:00:00.000 : en:00:00:00.000
00:06:28.430 : en:00:06:28.430
00:10:13.029 : en:00:10:13.029
00:13:35.231 : en:00:13:35.231
00:16:51.844 : en:00:16:51.844
00:19:44.850 : en:00:19:44.850
00:22:25.844 : en:00:22:25.844
00:25:12.261 : en:00:25:12.261
00:27:49.459 : en:00:27:49.459
00:29:28.809 : en:00:29:28.809
00:36:54.087 : en:00:36:54.087
00:40:26.966 : en:00:40:26.966
00:43:44.580 : en:00:43:44.580
00:49:37.099 : en:00:49:37.099
00:52:44.036 : en:00:52:44.036
00:55:33.455 : en:00:55:33.455
01:00:45.225 : en:01:00:45.225
01:06:59.849 : en:01:06:59.849
01:09:46.015 : en:01:09:46.015
01:15:33.946 : en:01:15:33.946
01:21:47.111 : en:01:21:47.111
01:23:07.065 : en:01:23:07.065
01:27:04.428 : en:01:27:04.428
01:34:00.051 : en:01:34:00.051





1 个附件 售价 大小 下载 时间

Dead.Alive.1992.1080p.BluRay.X264-AMIABLE.zip 0 金币 66.99K 462 次 13天前

#1楼
发帖时间:2020-09-16 23:17:07   |   回复数:0
游客组