travismk
一代宗师

[2020] [其他] [爱情] [WEB-1080P] 打噴嚏 A.Choo.2020.CHINESE.1080p.NF.WEBRip.DDP5.1.x264-AREY 4.24GB

-->

帖子完整标题:打噴嚏 A.Choo.2020.CHINESE.1080p.NF.WEBRip.DDP5.1.x264-AREY 4.24GB



◎译  名 不倒侠/A Choo/我的情敌是超人
◎片  名 打噴嚏
◎年  代 2020
◎产  地 中国台湾
◎类  别 爱情 / 科幻
◎语  言 汉语普通话
◎上映日期 2020-07-05(台北电影节) / 2020-07-15(中国台湾)
◎IMDb评分 5.6/10 from 52 users
◎IMDb链接 https://www.imdb.com/title/tt12689526/
◎豆瓣评分 /10 from 0 users
◎豆瓣链接 https://movie.douban.com/subject/24875519/
◎导  演 柯孟融 Kevin Ko / 戚家基 Peter Tsi
◎编  剧 九把刀 Giddens Ko
◎主  演 柯震东 Kai Ko
      林依晨 Ariel Lin
      张晓龙 Xiaolong Zhang
      王大陆 Talu Wang
      吴建豪 Vanness Wu
      古天乐 Louis Koo
      苏品杰 Jay Su
      叶熙祺 Xiqi Ye
      徐子珊 Kate Tsui
      周亭羽 Tiffany Chou

◎标  签 柯震东 | 九把刀 | 林依晨 | 台湾电影 | 台湾 | 爱情 | 等了好多年 | 电影

◎简  介

  这是一个存在超级英雄的城市。
  
  在孤儿院,义智(柯震东 饰)遇见了心心姐姐(林依晨 饰)。只要义智想她,她就会打喷嚏。
  
  长大的义智,为了爱,他要变成最勇敢的男人!他意外成为拳击场上的“不倒侠”,意外出现超人情敌,音波侠(张晓龙 饰);当心心陷入危急,他终于明白自己存在的意义。他永远不能成为超级英雄,但他永远是心心姐姐的专属超人。

◎获奖情况

  第57届台北金马影展 ?(2020)
  金马奖最佳动作设计(提名) 张鹏

Video
ID : 1
Format : AVC
Format/Info : Advanced Video Codec
Format profile : [email protected]
Format settings : CABAC / 3 Ref Frames
Format settings, CABAC : Yes
Format settings, Reference frames : 3 frames
Codec ID : V_MPEG4/ISO/AVC
Duration : 1 h 41 min
Bit rate mode : Variable
Bit rate : 5 360 kb/s
Maximum bit rate : 8 040 kb/s
Width : 1 920 pixels
Height : 1 080 pixels
Display aspect ratio : 16:9
Frame rate mode : Constant
Frame rate : 24.000 FPS
Color space : YUV
Chroma subsampling : 4:2:0
Bit depth : 8 bits
Scan type : Progressive
Bits/(Pixel*Frame) : 0.108
Stream size : 3.78 GiB (89%)
Writing library : x264 core 148 r2722 1b0121b
Encoding settings : cabac=1 / ref=3 / deblock=1:0:0 / analyse=0x1:0x111 / me=umh / subme=10 / psy=1 / psy_rd=1.00:0.00 / mixed_ref=1 / me_range=24 / chroma_me=1 / trellis=2 / 8x8dct=0 / cqm=0 / deadzone=21,11 / fast_pskip=1 / chroma_qp_offset=-2 / threads=8 / lookahead_threads=1 / sliced_threads=0 / nr=0 / decimate=1 / interlaced=0 / bluray_compat=0 / stitchable=1 / constrained_intra=0 / bframes=2 / b_pyramid=0 / b_adapt=2 / b_bias=0 / direct=3 / weightb=1 / open_gop=0 / weightp=2 / keyint=250 / keyint_min=24 / scenecut=0 / intra_refresh=0 / rc_lookahead=48 / rc=2pass / mbtree=1 / bitrate=5360 / ratetol=1.0 / qcomp=0.50 / qpmin=6 / qpmax=51 / qpstep=4 / cplxblur=20.0 / qblur=0.5 / vbv_maxrate=8040 / vbv_bufsize=10720 / nal_hrd=vbr / filler=0 / ip_ratio=1.40 / aq=1:1.00
Default : Yes
Forced : No

Audio
ID : 2
Format : E-AC-3
Format/Info : Enhanced AC-3
Commercial name : Dolby Digital Plus
Codec ID : A_EAC3
Duration : 1 h 41 min
Bit rate mode : Constant
Bit rate : 640 kb/s
Channel(s) : 6 channels
Channel layout : L R C LFE Ls Rs
Sampling rate : 48.0 kHz
Frame rate : 31.250 FPS (1536 SPF)
Compression mode : Lossy
Stream size : 464 MiB (11%)
Title : 国语 (臺灣) [Original]
Language : Chinese
Service kind : Complete Main
Default : Yes
Forced : No

Text #1
ID : 3
Format : UTF-8
Codec ID : S_TEXT/UTF8
Codec ID/Info : UTF-8 Plain Text
Duration : 1 h 40 min
Bit rate : 49 b/s
Count of elements : 1381
Stream size : 36.5 KiB (0%)
Title : English
Language : English
Default : Yes
Forced : No

Text #2
ID : 4
Format : UTF-8
Codec ID : S_TEXT/UTF8
Codec ID/Info : UTF-8 Plain Text
Duration : 1 h 40 min
Bit rate : 76 b/s
Count of elements : 1392
Stream size : 56.0 KiB (0%)
Title : ???????
Language : Arabic
Default : No
Forced : No

Text #3
ID : 5
Format : UTF-8
Codec ID : S_TEXT/UTF8
Codec ID/Info : UTF-8 Plain Text
Duration : 1 h 40 min
Bit rate : 57 b/s
Count of elements : 1509
Stream size : 42.1 KiB (0%)
Title : Indonesia
Language : Indonesian
Default : No
Forced : No

Text #4
ID : 6
Format : UTF-8
Codec ID : S_TEXT/UTF8
Codec ID/Info : UTF-8 Plain Text
Duration : 1 h 40 min
Bit rate : 48 b/s
Count of elements : 1435
Stream size : 35.6 KiB (0%)
Title : 日本語
Language : Japanese
Default : No
Forced : No

Text #5
ID : 7
Format : UTF-8
Codec ID : S_TEXT/UTF8
Codec ID/Info : UTF-8 Plain Text
Duration : 1 h 40 min
Bit rate : 64 b/s
Count of elements : 1498
Stream size : 47.0 KiB (0%)
Title : ???
Language : Korean
Default : No
Forced : No

Text #6
ID : 8
Format : UTF-8
Codec ID : S_TEXT/UTF8
Codec ID/Info : UTF-8 Plain Text
Duration : 1 h 40 min
Bit rate : 55 b/s
Count of elements : 1388
Stream size : 41.0 KiB (0%)
Title : Melayu
Language : Malay
Default : No
Forced : No

Text #7
ID : 9
Format : UTF-8
Codec ID : S_TEXT/UTF8
Codec ID/Info : UTF-8 Plain Text
Duration : 1 h 40 min
Bit rate : 136 b/s
Count of elements : 1464
Stream size : 100 KiB (0%)
Title : ???
Language : Thai
Default : No
Forced : No

Text #8
ID : 10
Format : UTF-8
Codec ID : S_TEXT/UTF8
Codec ID/Info : UTF-8 Plain Text
Duration : 1 h 40 min
Bit rate : 71 b/s
Count of elements : 1382
Stream size : 52.6 KiB (0%)
Title : Ti?ng Vi?t
Language : Vietnamese
Default : No
Forced : No

Text #9
ID : 11
Format : UTF-8
Codec ID : S_TEXT/UTF8
Codec ID/Info : UTF-8 Plain Text
Duration : 1 h 40 min
Bit rate : 51 b/s
Count of elements : 1549
Stream size : 37.8 KiB (0%)
Title : 中文(简体)
Language : Chinese
Default : No
Forced : No

Text #10
ID : 12
Format : UTF-8
Codec ID : S_TEXT/UTF8
Codec ID/Info : UTF-8 Plain Text
Duration : 1 h 35 min
Bit rate : 53 b/s
Count of elements : 1511
Stream size : 37.4 KiB (0%)
Title : 中文(繁體)
Language : Chinese
Default : No
Forced : No





1 个附件 售价 大小 下载 时间

A.Choo.2020.CHINESE.1080p.NF.WEBRip.DDP5.1.x264-AREY.zip 0 金币 43.03K 1246 次 6天前

#1楼
发帖时间:2020-10-17 22:48:10   |   回复数:2
show55667878
武林高手
感謝分享這電影
6天前 #2楼
liyouchai
隐世仙人♂
谢谢楼主分享资源
6天前 #3楼
游客组